<?xml version="1.0" standalone="no"?>
<!DOCTYPE svg PUBLIC "-//W3C//DTD SVG 1.1//EN" "http://www.w3.org/Graphics/SVG/1.1/DTD/svg11.dtd" >
<svg xmlns="http://www.w3.org/2000/svg">
<metadata>Generated by IcoMoon</metadata>
<defs>
<font id="ultimate-post-kit" horiz-adv-x="1024">
<font-face units-per-em="1024" ascent="896" descent="-128" />
<missing-glyph horiz-adv-x="1024" />
<glyph unicode="&#x20;" horiz-adv-x="0" d="" />
<glyph unicode="&#xe604;" glyph-name="hexagon-radius" d="M555.898-81.99c-23.378-13.504-61.618-13.504-84.942 0l-344.758 199.072c-23.33 13.504-42.448 46.61-42.448 73.62l-0.096 398.094c0 27.006 19.118 60.116 42.496 73.62l344.758 199.072c23.378 13.504 61.616 13.504 84.99 0l344.804-199.072c23.33-13.504 42.496-46.61 42.496-73.62v-398.144c0-27.006-19.168-60.116-42.496-73.62l-344.804-199.024z" />
<glyph unicode="&#xe900;" glyph-name="moimir" d="M495.62 670.36c71.948 0 139.748-31.724 189.51-81.692v-0.208c0 23.844 16.172 41.882 38.566 41.882h5.598c35.040 0 42.090-33.174 42.090-43.542l0.208-371.97c-2.488-24.258 25.088-36.906 40.432-21.356 59.714 61.378 131.246 315.574-37.114 462.786-156.958 137.468-367.408 114.864-479.372 37.736-119.014-82.109-195.108-263.738-121.088-434.38 80.656-186.192 311.426-241.552 448.478-186.192 69.46 27.986 101.598-65.934 29.442-96.414-109.062-46.444-412.194-41.676-554.016 203.607-95.792 165.666-90.608 457.394 163.178 608.338 194.278 115.486 450.344 83.558 604.606-77.752 161.312-168.568 151.977-484.348-5.39-607.094-71.326-55.774-177.276-1.452-176.654 79.826l-0.83 26.54c-49.762-49.348-115.696-77.96-187.854-77.96-142.236 0-267.47 125.234-267.47 267.47 0.208 143.688 125.442 270.372 267.678 270.372v0 0 0zM674.762 410.354c-5.39 104.086-82.723 166.91-176.032 166.91h-3.524c-107.818 0-167.532-84.802-167.532-181.008 0-107.818 72.362-175.826 167.123-175.826 105.744 0 175.204 77.338 180.18 168.98l-0.208 20.942z" />
<glyph unicode="&#xe901;" glyph-name="search" d="M684.416 219.477c-1.451-1.109-2.859-2.347-4.224-3.712s-2.56-2.731-3.712-4.224c-53.675-51.755-126.677-83.541-207.147-83.541-82.475 0-157.099 33.365-211.2 87.467s-87.467 128.725-87.467 211.2 33.365 157.099 87.467 211.2 128.725 87.467 211.2 87.467 157.099-33.365 211.2-87.467 87.467-128.725 87.467-211.2c0-80.469-31.787-153.472-83.584-207.189zM926.165 30.165l-156.8 156.8c52.523 65.707 83.968 149.035 83.968 239.701 0 106.027-43.008 202.069-112.469 271.531s-165.504 112.469-271.531 112.469-202.069-43.008-271.531-112.469-112.469-165.504-112.469-271.531 43.008-202.069 112.469-271.531 165.504-112.469 271.531-112.469c90.667 0 173.995 31.445 239.701 83.968l156.8-156.8c16.683-16.683 43.691-16.683 60.331 0s16.683 43.691 0 60.331z" />
<glyph unicode="&#xe902;" glyph-name="alter-grid" d="M454.656 220.16h-287.744c-7.168 0-13.312 7.168-13.312 15.36v0c0 8.192 6.144 15.36 13.312 15.36h287.744c7.168 0 13.312-7.168 13.312-15.36v0c0-8.192-6.144-15.36-13.312-15.36zM614.4 168.96h-447.488c-7.168 0-13.312 7.168-13.312 15.36v0c0 8.192 6.144 15.36 13.312 15.36h447.488c7.168 0 13.312-7.168 13.312-15.36v0c0-8.192-6.144-15.36-13.312-15.36zM724.992 106.496h-563.2c-5.12 0-9.216 4.096-9.216 10.24v0c0 6.144 3.072 10.24 9.216 10.24h563.2c5.12 0 9.216-4.096 9.216-10.24v0c0-5.12-4.096-10.24-9.216-10.24zM538.624 65.536h-375.808c-5.12 0-9.216 4.096-9.216 10.24v0c0 6.144 3.072 10.24 9.216 10.24h375.808c5.12 0 9.216-4.096 9.216-10.24v0c0-5.12-4.096-10.24-9.216-10.24zM324.608 302.080h-160.768c-6.144 0-10.24 4.096-10.24 10.24v0c0 6.144 4.096 10.24 10.24 10.24h160.768c6.144 0 10.24-4.096 10.24-10.24v0c0-5.12-5.12-10.24-10.24-10.24zM257.024-17.408h-93.184c-6.144 0-10.24 4.096-10.24 10.24v0c0 6.144 4.096 10.24 10.24 10.24h93.184c6.144 0 10.24-4.096 10.24-10.24v0c0-6.144-4.096-10.24-10.24-10.24zM454.656-17.408h-140.288c-6.144 0-10.24 4.096-10.24 10.24v0c0 6.144 4.096 10.24 10.24 10.24h140.288c6.144 0 10.24-4.096 10.24-10.24v0c0-6.144-5.12-10.24-10.24-10.24zM784.384 795.648h-610.304c-17.408 0-30.72-14.336-30.72-30.72v-368.64c0-17.408 13.312-30.72 30.72-30.72h610.304c17.408 0 30.72 13.312 30.72 30.72v368.64c0 16.384-13.312 30.72-30.72 30.72zM479.232 730.112c31.744 0 58.368-25.6 58.368-58.368s-25.6-58.368-58.368-58.368c-31.744 0-58.368 25.6-58.368 58.368s26.624 58.368 58.368 58.368zM794.624 396.288c0-5.12-5.12-10.24-10.24-10.24h-610.304c-5.12 0-10.24 5.12-10.24 10.24v76.8c0 3.072 1.024 6.144 4.096 8.192l131.072 105.472c1.024 1.024 2.048 1.024 3.072 2.048s2.048 1.024 3.072 2.048c1.024 0 2.048 1.024 3.072 1.024s2.048 1.024 3.072 2.048c1.024 0 2.048 0 3.072 1.024 1.024 0 3.072 1.024 4.096 1.024s2.048 0 3.072 0c1.024 0 3.072 0 4.096 0h3.072c1.024 0 2.048 0 3.072 0s2.048 0 3.072-1.024c1.024 0 2.048 0 3.072-1.024 1.024 0 2.048-1.024 3.072-1.024s2.048-1.024 3.072-1.024c1.024 0 2.048-1.024 4.096-2.048 1.024 0 1.024-1.024 2.048-1.024l98.304-62.464c10.24-6.144 21.504-10.24 33.792-9.216 11.264 0 23.552 3.072 33.792 10.24l92.16 60.416 27.648 18.432c1.024 1.024 2.048 1.024 3.072 1.024 16.384 9.216 36.864 6.144 49.152-8.192l108.544-115.712c1.024-1.024 1.024-2.048 2.048-3.072s1.024-3.072 1.024-4.096v-79.872z" />
<glyph unicode="&#xe903;" glyph-name="instapaper" d="M317.361 894h389.272v-96.646c0 0-27.786 1.972-71.313 2.712s-43.524-52.125-43.524-56.069c0-21.388-0.74-685.336-0.74-685.336s0-37.619 33.694-49.925h81.893v-90.738h-389.272v91.47l76.964-1.726c0 0 37.619 4.911 38.605 52.371 0.493 32.462-1.479 619.919-1.726 688.048-2.958 12.536-0.493 55.083-59.018 51.881-22.128-1.233-54.836-1.479-54.836-1.479v95.413z" />
<glyph unicode="&#xe904;" glyph-name="surfingbird" d="M852.126 605.245l-13.686-127.195-219.975-216.352h-116.73l-44.679-116.931v-161.409l-158.189 44.679 182.138 326.44-481.006 271.497 360.855-48.101-175.296 250.767 477.585-257.811 140.881 158.189h65.409l154.566-68.83z" />
<glyph unicode="&#xe905;" glyph-name="livejournal" horiz-adv-x="954" d="M508.8 825.2c-64 0-121.6-12.8-176-35.2l-102.4 96c-102.4-44.8-185.6-128-230.4-233.6l99.2-99.2c44.8 105.6 128 188.8 230.4 233.6v0l364.8-361.6c-102.4-44.8-185.6-128-230.4-233.6l-364.8 361.6c-22.4-54.4-38.4-115.2-38.4-176 0-246.4 201.6-448 448-448s448 201.6 448 448c-3.2 246.4-201.6 448-448 448zM585.6 166c25.6 60.8 73.6 108.8 134.4 134.4l35.2-169.6-169.6 35.2z" />
<glyph unicode="&#xe906;" glyph-name="meneame" d="M520.286 413.641c-21.724-13.491-43.479-21.135-66.37-25.94-33.574-7.055-67.253-7.055-100.795-0.62-28.979 5.552-52.753 21.198-71.932 42.995-38.011 43.195-65.402 92.016-73.509 149.91-11.114 79.324 16.698 143.58 77.547 193.999 43.658 36.171 95.506 53.699 150.573 63.478 86.401 15.32 168.112-1.483 247.194-35.687 40.598-17.57 79.839-38.348 121.773-52.848 9.253-3.207 18.622-6.099 28.359-7.476 17.57-2.46 31.965 3.491 43.542 16.55 15.12 17.087 20.441 37.643 20.399 60.008 4.248 0.242 5.131-3.081 6.488-5.583 12.902-23.7 9.222-62.258-8.286-82.331-18.317-21.030-42.68-24.773-68.567-21.776-29.421 3.396-57.38 11.987-84.203 24.762-50.398 24.026-101.521 46.202-156.282 58.599-68.557 15.53-136.567 12.797-203.116-9.306-96.894-32.186-147.828-128.46-121.447-227.268 15.215-57.022 47.285-101.931 97.378-133.686 21.671-13.743 45.561-18.054 70.765-17.728 25.509 0.368 50.366 5.342 75.276 10.052 4.311 0.831 8.517 1.903 15.215-0.105zM622.185-72.429c-4.648 1.556-13.333-3.638-14.71 2.85-1.356 6.34 7.707 8.422 12.975 10.631 32.133 13.364 64.53 26.129 96.674 39.473 20.010 8.307 39.536 17.697 57.506 29.957 6.172 4.216 11.85 9.011 16.855 14.595 7.949 8.864 9.863 18.212 5.226 29.852-24.447 61.218-51.744 121.341-73.173 183.779-17.276 50.345-30.977 101.395-34.625 154.936-4.29 63.163 17.581 112.278 72.090 146.083 25.688 15.962 53.279 27.854 80.901 39.799 34.152 14.763 67.958 29.904 97.914 52.785 44.835 34.194 59.556 80.050 55.718 134.149-1.724 24.352-5.794 48.274-11.356 72.006-0.641 2.692-4.301 6.666 0.547 8.748 4.364 1.893 6.687-1.504 8.57-4.963 14.595-26.529 26.003-54.057 29.568-84.539 6.887-58.641-18.769-103.361-59.346-142.056-25.888-24.689-57.674-39.967-89.029-55.897-28.317-14.395-57.548-27.128-84.224-44.615-29.084-19.053-53.184-42.259-61.186-77.684-6.519-28.811-1.23-57.316 4.574-85.528 12.765-62.027 37.885-119.806 62.69-177.628 12.828-29.831 26.497-59.314 36.697-90.154 16.456-49.725 2.723-88.072-41.534-116-31.828-20.062-67.505-28.842-104.097-34.678-21.408-3.396-43.037-4.458-65.224-5.899zM193.841 524.016c-0.789-5.173-3.722-9.106-6.53-13.112-47.317-67.516-87.852-138.701-118.418-215.46-21.293-53.489-26.403-108.114-12.344-164 17.402-69.135 63.436-111.826 128.334-136.924 47.054-18.191 96.106-26.939 145.873-32.796 69.156-8.181 138.586-13.638 207.889-20.367 6.666-0.641 13.259-2.482 19.768-4.237 3.133-0.841 7.182-2.124 6.751-6.361-0.526-4.91-5.068-3.438-8.139-3.691-44.867-3.649-89.797-5.678-134.811-6.351-63.331-0.946-126.883-1.388-189.341 9.137-101.479 17.097-180.13 67.611-218.299 167.291-20.462 53.489-17.886 109.207-1.409 163.527 24.72 81.49 62.122 156.272 123.013 217.51 15.772 15.846 33.542 29.473 50.934 43.479 1.693 1.335 3.26 3.47 6.73 2.355zM366.99 153.073c71.764 11.766 143.391 18.212 215.544 9.579 34.373-4.132 40.903-11.167 41.702-45.834 1.293-54.867-6.372-108.671-21.934-161.308-2.597-8.759-5.815-17.381-11.251-24.868-2.145-2.955-4.532-6.677-8.938-5.131-3.89 1.356-3.365 5.478-3.533 8.769-1.051 23.448 2.786 46.57 4.952 69.808 3.102 33.28 8.675 66.401 5.604 100.112-0.978 10.662-5.867 17.15-15.331 21.692-27.98 13.406-58 17.77-88.335 20.756-37.075 3.607-74.361 3.26-111.51 5.478-2.345 0.137-4.637 0.62-6.971 0.946z" />
<glyph unicode="&#xe907;" glyph-name="baidu" d="M184.32 378.352c111.36 23.936 96 157.12 92.8 186.24-5.44 44.8-58.24 123.2-129.792 116.928-90.112-8-103.168-138.24-103.168-138.24-12.288-60.16 29.056-188.8 140.16-164.928zM391.040 601.584c61.44 0 111.040 70.784 111.040 158.272 0 87.104-49.6 158.144-111.040 158.144s-111.36-70.656-111.36-158.080c0-87.552 49.92-158.336 111.36-158.336zM655.872 591.152c82.24-10.752 134.912 76.992 145.472 143.488 10.88 66.368-42.24 143.552-100.48 156.8-58.24 13.44-130.56-80-137.6-140.8-7.68-74.624 10.88-148.928 92.8-159.488zM981.824 479.472c0 31.808-26.24 127.68-124.16 127.68s-111.424-90.432-111.424-154.432c0-60.8 5.12-145.92 127.36-143.36 121.856 3.2 108.544 138.24 108.544 170.24zM857.6 200.56s-127.232 98.56-201.472 204.8c-100.8 156.8-243.84 92.992-291.584 13.44-47.744-80.256-121.984-130.56-132.48-144-10.688-13.12-153.6-90.24-121.856-231.232 31.744-140.8 143.168-138.24 143.168-138.24s81.92-7.936 177.28 13.312c95.36 21.248 177.28-5.12 177.28-5.12s222.080-74.688 283.52 68.928c60.8 143.68-34.56 218.24-34.56 218.24z" />
<glyph unicode="&#xe908;" glyph-name="plus-2" d="M460.8 844.8h51.2v-870.4h-51.2v870.4zM51.2 435.2h870.4v-51.2h-870.4v51.2z" />
<glyph unicode="&#xe909;" glyph-name="plus" d="M213.333 341.333h256v-256c0-23.552 19.115-42.667 42.667-42.667s42.667 19.115 42.667 42.667v256h256c23.552 0 42.667 19.115 42.667 42.667s-19.115 42.667-42.667 42.667h-256v256c0 23.552-19.115 42.667-42.667 42.667s-42.667-19.115-42.667-42.667v-256h-256c-23.552 0-42.667-19.115-42.667-42.667s19.115-42.667 42.667-42.667z" />
<glyph unicode="&#xe90a;" glyph-name="line" d="M826.24 497.52c14.848 0 26.88-12.16 26.88-26.88s-12.032-26.88-26.88-26.88h-74.88v-48h74.88c14.848 0 26.88-12.032 26.88-26.88 0-14.72-12.032-26.88-26.88-26.88h-101.76c-14.72 0-26.752 12.16-26.752 26.88v203.52c0 14.72 12.032 26.88 26.88 26.88h101.76c14.72 0 26.752-12.16 26.752-26.88 0-14.848-12.032-26.88-26.88-26.88h-74.88v-48h74.88zM661.76 368.88c0-11.52-7.424-21.76-18.432-25.472-2.752-0.896-5.632-1.28-8.512-1.28-8.96 0-16.64 3.84-21.76 10.688l-104.256 141.504v-125.44c0-14.72-11.904-26.88-26.88-26.88-14.72 0-26.688 12.16-26.688 26.88v203.52c0 11.52 7.36 21.76 18.304 25.408 2.56 0.96 5.76 1.408 8.32 1.408 8.32 0 16-4.48 21.12-10.88l105.024-142.016v126.080c0 14.72 12.032 26.88 26.88 26.88 14.72 0 26.88-12.16 26.88-26.88v-203.52zM416.768 368.88c0-14.72-12.032-26.88-26.88-26.88-14.72 0-26.752 12.16-26.752 26.88v203.52c0 14.72 12.032 26.88 26.88 26.88 14.72 0 26.752-12.16 26.752-26.88v-203.52zM311.552 342h-101.76c-14.72 0-26.88 12.16-26.88 26.88v203.52c0 14.72 12.16 26.88 26.88 26.88 14.848 0 26.88-12.16 26.88-26.88v-176.64h74.88c14.848 0 26.88-12.032 26.88-26.88 0-14.72-12.032-26.88-26.88-26.88zM1024 478.32c0 229.12-229.76 415.616-512 415.616s-512-186.496-512-415.616c0-205.312 182.144-377.344 428.16-409.92 16.64-3.584 39.36-11.008 45.12-25.216 5.12-12.8 3.392-32.64 1.664-46.080l-7.040-43.52c-1.92-12.8-10.24-50.56 44.8-27.52s295.040 174.080 402.56 297.6c73.536 80.576 108.736 163.136 108.736 254.656z" />
<glyph unicode="&#xe90b;" glyph-name="g2" d="M890.484 593.572h-152.978c4.156 24.032 18.946 37.436 48.99 52.686l28.194 14.33c50.376 25.876 77.178 54.996 77.178 102.602 0 30.040-11.554 53.612-34.66 70.712-22.646 17.1-50.376 25.418-82.264 25.418-25.424 0-48.53-6.466-69.792-19.87-20.796-12.944-36.512-29.58-46.214-50.376l44.368-44.376c17.1 34.666 42.058 51.766 74.874 51.766 27.728 0 44.828-14.33 44.828-34.2 0-16.64-8.318-30.504-40.206-46.68l-18.026-8.782c-39.288-19.87-66.556-42.518-82.272-68.402-15.71-25.418-23.566-58.232-23.566-97.52v-10.628h231.546v63.32zM870.034 457.126h-253.316l-126.66-219.378h253.318l126.658-219.378 126.658 219.378zM511.882 91.498c-161.286 0-292.502 131.216-292.502 292.502s131.216 292.504 292.502 292.504l100.142 209.558c-30.071 6.245-64.629 9.82-100.021 9.82-0.043 0-0.085 0-0.128 0h0.007c-282.704 0-511.882-229.178-511.882-511.882s229.178-511.882 511.882-511.882c112.714 0 216.898 36.46 301.462 98.188l-110.892 192.070c-51.232-44.118-117.814-70.878-190.57-70.878z" />
<glyph unicode="&#xe90c;" glyph-name="hexagon" d="M942.5 141.8v495.8l-429.4 248-429.4-248v-495.8l429.4-247.9z" />
<glyph unicode="&#xe90d;" glyph-name="hexagon-radius2" d="M819.8 65.6c67.2 38.8 122.1 133.9 122.1 211.5v213.8c0 77.5-54.9 172.7-122.1 211.5l-185.2 107c-67.2 38.8-177 38.8-244.2 0l-185.2-107c-67.2-38.8-122.1-134-122.1-211.5v-213.9c0-77.5 55-172.7 122.1-211.5l185.2-106.9c67.2-38.8 177.1-38.8 244.2 0l185.2 107z" />
<glyph unicode="&#xe90e;" glyph-name="bulge-rectangle" d="M929.2-30c-277.5-41.6-554.9-41.6-832.4 0-41.6 277.5-41.6 554.9 0 832.4 277.4 41.6 554.9 41.6 832.4 0 41.6-277.5 41.6-554.9 0-832.4z" />
<glyph unicode="&#xe90f;" glyph-name="hexagon-zigzag" d="M949.7 138.1c4.4 7.7 11.8 13 11.8 21.8 0 8.9-37.7 8.9-37.7 17.7 0 8.9 38.3 8.9 38.3 17.7 0 8.9-32.6 8.9-32.6 17.7 0 8.9-1 8.9-1 17.7 0 8.9-0.2 8.9-0.2 17.7 0 8.9 25.2 8.9 25.2 17.7 0 8.9-30.1 8.9-30.1 17.7 0 8.9 37.2 8.9 37.2 17.7s-33.6 8.9-33.6 17.7c0 8.9 9 8.9 9 17.7 0 8.9 24.6 8.9 24.6 17.7 0 8.9-22.7 8.9-22.7 17.7 0 8.9-13.7 8.9-13.7 17.7 0 8.9 7 8.9 7 17.7 0 8.9-5.3 8.9-5.3 17.7 0 8.9 16.6 8.9 16.6 17.7 0 8.9-8.5 8.9-8.5 17.7 0 8.9 27.8 8.9 27.8 17.7 0 8.9-6.9 8.9-6.9 17.7 0 8.9-28.1 8.9-28.1 17.7 0 8.9-2.9 8.9-2.9 17.7 0 8.9 18.9 8.9 18.9 17.7 0 8.9 0 8.9 0 17.7 0 8.9-3 8.9-3 17.7 0 8.9-14 8.9-14 17.7 0 8.9 33.1 8.9 33.1 17.7 0 8.9-1.7 16-6.1 23.7s-15.1 3.5-22.8 7.9c-7.7 4.4-6.8 5.9-14.5 10.4-7.7 4.4-7.6 4.6-15.2 9-7.7 4.4-20.3-17.4-27.9-13-7.7 4.4-6.9 5.7-14.6 10.1s1.7 20.7-6 25.1c-7.7 4.4-4.9 9.2-12.6 13.6s-21.7-19.9-29.4-15.5c-7.7 4.4-7.1 5.5-14.7 9.9-7.7 4.4 7.8 31.2 0.1 35.7-7.7 4.4-14.8-7.9-22.5-3.5s0.4 18.4-7.3 22.9c-7.7 4.4-9.3 1.5-17 6-7.7 4.4-4.2 10.4-11.9 14.9-7.7 4.4-17.4-12.4-25.1-8s-13.7-6-21.3-1.5c-7.7 4.4-9.8 0.8-17.4 5.2-7.7 4.4 9.2 33.6 1.5 38.1-7.7 4.4-22.4-21.1-30.1-16.7s-1.4 15.2-9.1 19.6c-7.7 4.4-7.8 4.1-15.5 8.6-7.7 4.4 2.1 21.3-5.6 25.8-7.7 4.4-26.2-27.7-33.9-23.3s-3.7 11.2-11.4 15.7c-7.7 4.4 3.3 23.5-4.3 27.9-7.7 4.4-11.7-2.5-19.4 1.9s-11.8-2.7-19.4 1.8c-7.7 4.4-3.8 29-12.7 29s0.9-34.8-6.8-39.2c-7.7-4.4-10.1-0.3-17.7-4.7-7.7-4.4-16.9 11.5-24.5 7-7.7-4.4-9.4-1.5-17-5.9-7.7-4.4-0.6-16.6-8.3-21.1-7.7-4.4-15.3 8.7-22.9 4.3-7.7-4.4-4.5-10-12.1-14.4-7.7-4.4-2.7-13-10.4-17.5-7.7-4.4-18.9 15-26.5 10.5-7.7-4.4 5-26.4-2.7-30.8s-2.5-13.4-10.2-17.8c-7.7-4.4-10-0.5-17.6-4.9-7.7-4.4-13 4.8-20.6 0.3-7.7-4.4-17.2 12.1-24.9 7.7s-1.8-14.6-9.5-19c-7.7-4.4 2.6-22.1-5.1-26.6-7.7-4.4-20.2 17.3-27.9 12.9s-12.7 4.4-20.4-0.1c-7.7-4.4-0.3-17.2-8-21.6s-13.2 5.1-20.9 0.7c-7.7-4.4 3.2-23.2-4.5-27.6s-16.9 11.5-24.6 7.1c-7.7-4.4-7.8-4.2-15.5-8.6s-8.2-3.5-15.9-7.9c-7.7-4.4-6.7-6.1-14.4-10.5s7.6-30.9-0.1-35.3c-7.7-4.4-15.6 9.3-23.3 4.8s-11.5 1.3-15.9-6.3c-4.4-7.7-4.1-8.1-4.1-16.9 0-8.9-3.8-8.9-3.8-17.7 0-8.9 10.1-8.9 10.1-17.7 0-8.9 0.3-8.9 0.3-17.7 0-8.9-15-8.9-15-17.7 0-8.9 30.4-8.9 30.4-17.7 0-8.9-6.8-8.9-6.8-17.7 0-8.9-7.9-8.9-7.9-17.7 0-8.9-18.7-8.9-18.7-17.7 0-8.9 3.2-8.9 3.2-17.7 0-8.9 4.9-8.9 4.9-17.7 0-8.9-12.8-8.9-12.8-17.7 0-8.9 9.2-8.9 9.2-17.7 0-8.9 24.6-8.9 24.6-17.7 0-8.9-30-8.9-30-17.7 0-8.9 0.7-8.9 0.7-17.7 0-8.9-2.3-8.9-2.3-17.7 0-8.9 33.5-8.9 33.5-17.7 0-8.9-15.5-8.9-15.5-17.7 0-8.9 7.2-8.9 7.2-17.7 0-8.9-6.7-8.9-6.7-17.7 0-8.9-3.6-8.9-3.6-17.7 0-8.9 0.8-8.9 0.8-17.7 0-8.9 1.1-8.9 1.1-17.7 0-8.9-5.2-8.9-5.2-17.7 0-8.9-3.4-8.9-3.4-17.7 0-8.9 3.9-8.9 3.9-17.7s-8.4-15-4-22.7c4.4-7.7 20.6 7.9 28.2 3.5 7.7-4.4 13 4.9 20.7 0.5s-2.3-21.7 5.3-26.2c7.7-4.4 1.8-14.5 9.5-19 7.7-4.4 14.9 8.1 22.5 3.6 7.7-4.4 8.8-2.4 16.5-6.8s13.3 5.4 21 0.9c7.7-4.4 1.6-15 9.2-19.4 7.7-4.4 9.2-1.7 16.9-6.1s12.7 4.3 20.4-0.1c7.7-4.4 4.3-10.2 12-14.6s-0.4-18.3 7.3-22.8c7.7-4.4 14.3 7.1 22 2.7s1.7-14.8 9.3-19.3c7.7-4.4 19.5 16.1 27.2 11.7s-7.7-31 0-35.5c7.7-4.4 3.9-11 11.5-15.4 7.7-4.4 21.1 18.9 28.8 14.5s11.5 2.2 19.2-2.2c7.7-4.4 0.8-16.3 8.5-20.7s-0.3-18.2 7.4-22.6c7.7-4.4 8-3.9 15.6-8.3 7.7-4.4 9.8-0.8 17.4-5.2 7.7-4.4 10.1-0.2 17.8-4.6s3.3-12 11-16.4c7.7-4.4 17.6 12.7 25.2 8.3 7.7-4.4-3.8-24.4 3.8-28.8s14.8 8.3 23.6 8.3c8.9 0-2 18.4 5.7 22.8s16.1-10.1 23.7-5.7c7.7 4.4 8.5 3 16.1 7.4 7.7 4.4 5.4 8.4 13 12.9 7.7 4.4 19.4-15.9 27.1-11.5s4.5 9.9 12.2 14.3c7.7 4.4 3.8 11.1 11.5 15.5s6.2 6.9 13.9 11.4c7.7 4.4 16.6-11 24.2-6.6 7.7 4.4-0.7 18.9 7 23.4 7.7 4.4 1.8 14.5 9.5 19 7.7 4.4 17.7-13 25.4-8.6s4 10.9 11.6 15.3c7.7 4.4-1.4 20.2 6.2 24.6 7.7 4.4 13.3-5.4 21-0.9 7.7 4.4 7.6 4.5 15.3 9 7.7 4.4 11.5-2.2 19.2 2.2s13.8-6.1 21.4-1.7c7.7 4.4-5.6 27.4 2.1 31.8s6 7.3 13.7 11.7c7.7 4.4 7.8 4.3 15.4 8.7 7.7 4.4 9.6 1.1 17.3 5.5s10.2 0.1 17.8 4.6c7.7 4.4 3.3 11.9 11 16.3s6 7.3 13.7 11.7c7.7 4.4 13.1-4.9 20.7-0.5 7.7 4.4 8.8 6.9 17.5 8.4 12.5 2.1 19.5-7.7 24 0z" />
<glyph unicode="&#xe910;" glyph-name="arrow-down-1" d="M1024 544l-192 192-320-320-320 320-192-192 512-512z" />
<glyph unicode="&#xe911;" glyph-name="arrow-down-2" d="M1024 544l-128 128-384-384-384 384-128-128 512-512 512 512z" />
<glyph unicode="&#xe912;" glyph-name="arrow-down-3" d="M1024 544l-96 96-416-416-416 416-96-96 512-512 512 512z" />
<glyph unicode="&#xe913;" glyph-name="arrow-down-4" d="M1024 544l-64 64-448-448-448 448-64-64 512-512 512 512z" />
<glyph unicode="&#xe914;" glyph-name="edit" d="M768 352v-352h-640v640h352l128 128h-512c-52.8 0-96-43.2-96-96v-704c0-52.8 43.2-96 96-96h704c52.798 0 96 43.2 96 96v512l-128-128zM864 896l-608-608v-160h160l608 608c0 96-64 160-160 160zM416 256l-48 48 480 480 48-48-480-480z" />
<glyph unicode="&#xe915;" glyph-name="arrow-down-5" d="M224 512l288-288 288 288h-576z" />
<glyph unicode="&#xe916;" glyph-name="arrow-down-7" d="M160 256l352-352 352 352h-288v576h-128v-576z" />
<glyph unicode="&#xe917;" glyph-name="arrow-left-1" d="M672-128l192 192-320 320 320 320-192 192-512-512z" />
<glyph unicode="&#xe918;" glyph-name="arrow-left-2" d="M672-128l128 128-384 384 384 384-128 128-512-512 512-512z" />
<glyph unicode="&#xe919;" glyph-name="arrow-left-3" d="M672-128l96 96-416 416 416 416-96 96-512-512 512-512z" />
<glyph unicode="&#xe91a;" glyph-name="arrow-left-4" d="M672-128l64 64-448 448 448 448-64 64-512-512 512-512z" />
<glyph unicode="&#xe91b;" glyph-name="arrow-left-18" d="M640 672l-288-288 288-288v576z" />
<glyph unicode="&#xe91c;" glyph-name="arrow-left-17" d="M32 384l480-480v288h512v384h-512v288z" />
<glyph unicode="&#xe91d;" glyph-name="arrow-left-14" d="M384 736l-352-352 352-352v288h576v128h-576z" />
<glyph unicode="&#xe91e;" glyph-name="arrow-left-8" d="M402.752 18.752l-320 320c-25.024 24.96-25.024 65.536 0 90.496l320 320c25.024 25.024 65.536 25.024 90.496 0s25.024-65.536 0-90.496l-210.752-210.752h613.504c35.328 0 64-28.672 64-64s-28.672-64-64-64h-613.504l210.752-210.752c12.48-12.48 18.752-28.864 18.752-45.248s-6.272-32.768-18.752-45.248c-25.024-25.024-65.536-25.024-90.496 0z" />
<glyph unicode="&#xe91f;" glyph-name="arrow-left-9" d="M0 384l512-512v320h512v384h-512v320l-512-512zM448 512h512v-256h-512v-229.504l-357.504 357.504 357.504 357.504v-229.504z" />
<glyph unicode="&#xe920;" glyph-name="arrow-left-10" d="M0 384l512-512v320h512v384h-512v320l-512-512zM152 445.504l16 16v-155.008l-16 16v123.008zM136 338.496l-16 16v59.008l16 16v-91.008zM184 477.504l16 16v-219.008l-16 16v187.008zM216 509.504l16 16v-283.008l-16 16v251.008zM248 541.504l16 16v-347.008l-16 16v315.008zM280 573.504l16 16v-411.008l-16 16v379.008zM312 605.504l16 16v-475.008l-16 16v443.008zM344 637.504l16 16v-539.008l-16 16v507.008zM376 669.504l16 16v-603.008l-16 16v571.008zM408 701.504l16 16v-667.008l-16 16v635.008zM104 397.504v-27.008l-13.504 13.504 13.504 13.504zM472 256v256h16v-256h-16zM504 256v256h16v-256h-16zM536 256v256h16v-256h-16zM568 256v256h16v-256h-16zM600 256v256h16v-256h-16zM632 256v256h16v-256h-16zM664 256v256h16v-256h-16zM696 256v256h16v-256h-16zM728 256v256h16v-256h-16zM760 256v256h16v-256h-16zM792 256v256h16v-256h-16zM824 256v256h16v-256h-16zM856 256v256h16v-256h-16zM888 256v256h16v-256h-16zM920 256v256h16v-256h-16zM960 256h-8v256h8v-256zM448 512h8v-256h-8v-229.504l-8 8v699.008l8 8v-229.504z" />
<glyph unicode="&#xe921;" glyph-name="arrow-left-11" d="M0 352l384 384v-256l640-96v-64l-640-96v-256z" />
<glyph unicode="&#xe922;" glyph-name="arrow-left-13" d="M448 896l-448-512 448-512v372.48l576-116.48v512l-576-116.48v372.48zM960 564.48v-360.896l-576 116.48v-277.696l-298.944 341.632 298.944 341.696v-277.696l576 116.48z" />
<glyph unicode="&#xe923;" glyph-name="arrow-left-15" d="M768 896l-512-512 512-512-256 512z" />
<glyph unicode="&#xe924;" glyph-name="arrow-left-16" d="M960 576h64v-384h-64zM832 576h64v-384h-64zM704 576h64v-384h-64zM0 384l448 448v-256h192v-384h-192v-256z" />
<glyph unicode="&#xe925;" glyph-name="arrow-right-1" d="M352 896l-192-192 320-320-320-320 192-192 512 512z" />
<glyph unicode="&#xe926;" glyph-name="arrow-right-2" d="M352 896l-128-128 384-384-384-384 128-128 512 512-512 512z" />
<glyph unicode="&#xe927;" glyph-name="arrow-right-3" d="M352 896l-96-96 416-416-416-416 96-96 512 512-512 512z" />
<glyph unicode="&#xe928;" glyph-name="arrow-right-4" d="M352 896l-64-64 448-448-448-448 64-64 512 512-512 512z" />
<glyph unicode="&#xe929;" glyph-name="arrow-right-18" d="M384 96l288 288-288 288v-576z" />
<glyph unicode="&#xe92a;" glyph-name="arrow-right-17" d="M992 384l-480 480v-288h-512v-384h512v-288z" />
<glyph unicode="&#xe92b;" glyph-name="arrow-right-14" d="M640 32l352 352-352 352v-288h-576v-128h576z" />
<glyph unicode="&#xe92c;" glyph-name="arrow-right-8" d="M621.248 18.752l320 320c25.024 24.96 25.024 65.536 0 90.496l-320 320c-25.024 25.024-65.536 25.024-90.496 0s-25.024-65.536 0-90.496l210.752-210.752h-613.504c-35.328 0-64-28.672-64-64s28.672-64 64-64h613.504l-210.752-210.752c-12.48-12.48-18.752-28.864-18.752-45.248s6.272-32.768 18.752-45.248c25.024-25.024 65.536-25.024 90.496 0z" />
<glyph unicode="&#xe92d;" glyph-name="arrow-right-9" d="M1024 384l-512 512v-320h-512v-384h512v-320l512 512zM576 256h-512v256h512v229.504l357.504-357.504-357.504-357.504v229.504z" />
<glyph unicode="&#xe92e;" glyph-name="arrow-right-10" d="M1024 384l-512 512v-320h-512v-384h512v-320l512 512zM872 322.496l-16-16v155.008l16-16v-123.008zM888 429.504l16-16v-59.008l-16-16v91.008zM840 290.496l-16-16v219.008l16-16v-187.008zM808 258.496l-16-16v283.008l16-16v-251.008zM776 226.496l-16-16v347.008l16-16v-315.008zM744 194.496l-16-16v411.008l16-16v-379.008zM712 162.496l-16-16v475.008l16-16v-443.008zM680 130.496l-16-16v539.008l16-16v-507.008zM648 98.496l-16-16v603.008l16-16v-571.008zM616 66.496l-16-16v667.008l16-16v-635.008zM920 370.496v27.008l13.504-13.504-13.504-13.504zM552 512v-256h-16v256h16zM520 512v-256h-16v256h16zM488 512v-256h-16v256h16zM456 512v-256h-16v256h16zM424 512v-256h-16v256h16zM392 512v-256h-16v256h16zM360 512v-256h-16v256h16zM328 512v-256h-16v256h16zM296 512v-256h-16v256h16zM264 512v-256h-16v256h16zM232 512v-256h-16v256h16zM200 512v-256h-16v256h16zM168 512v-256h-16v256h16zM136 512v-256h-16v256h16zM104 512v-256h-16v256h16zM64 512h8v-256h-8v256zM576 256h-8v256h8v229.504l8-8v-699.008l-8-8v229.504z" />
<glyph unicode="&#xe92f;" glyph-name="arrow-right-11" d="M1024 352l-384 384v-256l-640-96v-64l640-96v-256z" />
<glyph unicode="&#xe930;" glyph-name="arrow-right-13" d="M576-128l448 512-448 512v-372.48l-576 116.48v-512l576 116.48v-372.48zM64 203.52v360.896l576-116.48v277.696l298.944-341.696-298.944-341.696v277.696l-576-116.48z" />
<glyph unicode="&#xe931;" glyph-name="arrow-right-15" d="M256-128l512 512-512 512 256-512z" />
<glyph unicode="&#xe932;" glyph-name="arrow-right-16" d="M0 576h64v-384h-64zM128 576h64v-384h-64zM256 576h64v-384h-64zM1024 384l-448 448v-256h-192v-384h192v-256z" />
<glyph unicode="&#xe933;" glyph-name="arrow-up-1" d="M0 224l192-192 320 320 320-320 192 192-512 512z" />
<glyph unicode="&#xe934;" glyph-name="arrow-up-2" d="M0 224l128-128 384 384 384-384 128 128-512 512-512-512z" />
<glyph unicode="&#xe935;" glyph-name="arrow-up-3" d="M0 224l96-96 416 416 416-416 96 96-512 512-512-512z" />
<glyph unicode="&#xe936;" glyph-name="arrow-up-4" d="M0 224l64-64 448 448 448-448 64 64-512 512-512-512z" />
<glyph unicode="&#xe937;" glyph-name="arrow-up-5" d="M800 256l-288 288-288-288h576z" />
<glyph unicode="&#xe938;" glyph-name="arrow-up-7" d="M864 512l-352 352-352-352h288v-576h128v576z" />
<glyph unicode="&#xe939;" glyph-name="arrow-up-8" d="M877.248 493.248l-320 320c-24.96 25.024-65.536 25.024-90.496 0l-320-320c-25.024-25.024-25.024-65.536 0-90.496s65.536-25.024 90.496 0l210.752 210.752v-613.504c0-35.328 28.672-64 64-64s64 28.672 64 64v613.504l210.752-210.752c12.48-12.48 28.864-18.752 45.248-18.752s32.768 6.272 45.248 18.752c25.024 25.024 25.024 65.536 0 90.496z" />
<glyph unicode="&#xe93a;" glyph-name="arrow-left-circle-4" d="M512-128c282.752 0 512 229.248 512 512s-229.248 512-512 512-512-229.248-512-512 229.248-512 512-512zM512 800c229.76 0 416-186.24 416-416s-186.24-416-416-416-416 186.24-416 416 186.24 416 416 416zM669.248 578.752l-90.496 90.496-285.248-285.248 285.248-285.248 90.496 90.496-194.752 194.752z" />
<glyph unicode="&#xe93b;" glyph-name="arrow-left-circle-1" d="M512-128c282.752 0 512 229.248 512 512s-229.248 512-512 512c-282.752 0-512-229.248-512-512s229.248-512 512-512zM512 800c229.76 0 416-186.24 416-416s-186.24-416-416-416c-229.76 0-416 186.24-416 416s186.24 416 416 416zM480 640l-256-256 256-256 96 96-96 96h288v128h-288l96 96z" />
<glyph unicode="&#xe93c;" glyph-name="arrow-left-circle-2" d="M512 896c282.752 0 512-229.248 512-512s-229.248-512-512-512-512 229.248-512 512 229.248 512 512 512zM448 160v160h320v128h-320v160l-224-224 224-224z" />
<glyph unicode="&#xe93d;" glyph-name="arrow-left-circle-3" d="M512 896c282.752 0 512-229.248 512-512s-229.248-512-512-512-512 229.248-512 512 229.248 512 512 512zM512 0c212.096 0 384 171.904 384 384s-171.904 384-384 384c-212.096 0-384-171.904-384-384s171.904-384 384-384zM448 160v160h320v128h-320v160l-224-224z" />
<glyph unicode="&#xe93e;" glyph-name="arrow-right-circle-4" d="M512 896c-282.752 0-512-229.248-512-512s229.248-512 512-512 512 229.248 512 512-229.248 512-512 512zM512-32c-229.76 0-416 186.24-416 416s186.24 416 416 416 416-186.24 416-416-186.24-416-416-416zM354.752 189.248l90.496-90.496 285.248 285.248-285.248 285.248-90.496-90.496 194.752-194.752z" />
<glyph unicode="&#xe93f;" glyph-name="arrow-right-circle-1" d="M512 896c-282.752 0-512-229.248-512-512s229.248-512 512-512 512 229.248 512 512-229.248 512-512 512zM512-32c-229.76 0-416 186.24-416 416s186.24 416 416 416 416-186.24 416-416-186.24-416-416-416zM544 128l256 256-256 256-96-96 96-96h-288v-128h288l-96-96z" />
<glyph unicode="&#xe940;" glyph-name="arrow-right-circle-2" d="M512 896c-282.752 0-512-229.248-512-512s229.248-512 512-512 512 229.248 512 512-229.248 512-512 512zM576 160v160h-320v128h320v160l224-224-224-224z" />
<glyph unicode="&#xe941;" glyph-name="arrow-right-circle-3" d="M512 896c-282.752 0-512-229.248-512-512s229.248-512 512-512 512 229.248 512 512-229.248 512-512 512zM512 0c-212.096 0-384 171.904-384 384s171.904 384 384 384c212.096 0 384-171.904 384-384s-171.904-384-384-384zM576 160v160h-320v128h320v160l224-224z" />
<glyph unicode="&#xe942;" glyph-name="arrow-right-square-1" d="M1024 896h-1024v-1024h1024v1024zM128 0v768h768v-768h-768zM512 672l288-288-288-288v224h-320v128h320z" />
<glyph unicode="&#xe943;" glyph-name="arrow-left-5" d="M716.8-128c6.554 0 13.107 2.509 18.125 7.475 9.984 9.984 9.984 26.214 0 36.198l-442.675 442.675 442.675 442.675c9.984 9.984 9.984 26.214 0 36.198s-26.214 9.984-36.198 0l-460.8-460.8c-9.984-9.984-9.984-26.214 0-36.198l460.8-460.8c5.018-5.018 11.571-7.475 18.125-7.475z" />
<glyph unicode="&#xe944;" glyph-name="arrow-right-5" d="M256-128c-6.554 0-13.107 2.509-18.125 7.475-9.984 9.984-9.984 26.214 0 36.198l442.675 442.675-442.675 442.675c-9.984 9.984-9.984 26.214 0 36.198s26.214 9.984 36.198 0l460.8-460.8c9.984-9.984 9.984-26.214 0-36.198l-460.8-460.8c-5.018-5.018-11.571-7.475-18.125-7.475z" />
<glyph unicode="&#xe945;" glyph-name="arrow-left-6" d="M33.075 376.525l307.2 307.2c9.984 9.984 26.214 9.984 36.198 0s9.984-26.214 0-36.198l-263.475-263.475h834.202c14.131 0 25.6-11.469 25.6-25.6s-11.469-25.6-25.6-25.6h-834.202l263.475-263.475c9.984-9.984 9.984-26.214 0-36.198-5.018-5.018-11.571-7.475-18.125-7.475s-13.107 2.509-18.125 7.475l-307.2 307.2c-9.984 9.984-9.984 26.214 0 36.198z" />
<glyph unicode="&#xe946;" glyph-name="arrow-right-6" d="M990.925 376.525l-307.2 307.2c-9.984 9.984-26.214 9.984-36.198 0s-9.984-26.214 0-36.198l263.475-263.475h-834.202c-14.131 0-25.6-11.469-25.6-25.6s11.469-25.6 25.6-25.6h834.202l-263.475-263.475c-9.984-9.984-9.984-26.214 0-36.198 5.018-5.018 11.571-7.475 18.125-7.475s13.107 2.509 18.125 7.475l307.2 307.2c9.984 9.984 9.984 26.214 0 36.198z" />
<glyph unicode="&#xe947;" glyph-name="arrow-down-8" d="M877.248 274.752l-320-320c-24.96-25.024-65.536-25.024-90.496 0l-320 320c-25.024 25.024-25.024 65.536 0 90.496s65.536 25.024 90.496 0l210.752-210.752v613.504c0 35.328 28.672 64 64 64s64-28.672 64-64v-613.504l210.752 210.752c12.48 12.48 28.864 18.752 45.248 18.752s32.768-6.272 45.248-18.752c25.024-25.024 25.024-65.536 0-90.496z" />
<glyph unicode="&#xe948;" glyph-name="arrow-left-square-1" d="M0-128h1024v1024h-1024v-1024zM896 768v-768h-768v768h768zM512 96l-288 288 288 288v-224h320v-128h-320z" />
<glyph unicode="&#xe949;" glyph-name="arrow-left-7" d="M30.72 378.88l215.040 209.92c10.24 10.24 25.6 10.24 35.84 0s10.24-25.6 0-35.84l-168.96-168.96h834.56c15.36 0 25.6-10.24 25.6-25.6s-10.24-25.6-25.6-25.6h-834.56l168.96-168.96c10.24-10.24 10.24-25.6 0-35.84-5.12-5.12-10.24-5.12-20.48-5.12s-15.36 0-20.48 5.12l-209.92 209.92c-5.12 10.24-5.12 30.72 0 40.96v0z" />
<glyph unicode="&#xe94a;" glyph-name="arrow-right-7" d="M967.68 378.88c10.24-10.24 10.24-25.6 0-35.84l-215.040-215.040c-5.12-5.12-10.24-5.12-20.48-5.12s-15.36 0-20.48 5.12c-10.24 10.24-10.24 25.6 0 35.84l168.96 168.96h-829.44c-15.36 0-25.6 10.24-25.6 25.6s10.24 25.6 25.6 25.6h834.56l-168.96 168.96c-10.24 10.24-10.24 25.6 0 35.84s25.6 10.24 35.84 0l215.040-209.92z" />
<glyph unicode="&#xe94b;" glyph-name="arrow-left-12" d="M522.24 566.272c0-19.456 15.36-34.816 34.816-34.816s34.816 15.36 34.816 34.816c0 19.456-15.36 34.816-34.816 34.816s-34.816-15.36-34.816-34.816zM522.24 384c0-19.456 15.36-34.816 34.816-34.816s34.816 15.36 34.816 34.816c0 19.456-15.36 34.816-34.816 34.816s-34.816-15.36-34.816-34.816zM522.24 293.888c0-19.456 15.36-34.816 34.816-34.816s34.816 15.36 34.816 34.816c0 18.432-15.36 33.792-34.816 33.792s-34.816-15.36-34.816-33.792zM522.24 201.728c0-18.432 15.36-33.792 34.816-33.792s34.816 15.36 34.816 33.792c0 19.456-15.36 34.816-34.816 34.816s-34.816-15.36-34.816-34.816zM432.128 293.888c0-19.456 15.36-34.816 33.792-34.816 19.456 0 34.816 15.36 34.816 34.816 0 18.432-15.36 33.792-34.816 33.792-18.432 0-33.792-15.36-33.792-33.792zM432.128 475.136c0-18.432 15.36-34.816 33.792-34.816 19.456 0 34.816 16.384 34.816 34.816s-15.36 33.792-34.816 33.792c-18.432 0-33.792-15.36-33.792-33.792zM613.376 111.616c0-19.456 15.36-34.816 34.816-34.816 18.432 0 34.816 15.36 34.816 34.816s-16.384 34.816-34.816 34.816c-19.456 0-34.816-15.36-34.816-34.816zM340.992 384c0-19.456 15.36-34.816 34.816-34.816 18.432 0 34.816 15.36 34.816 34.816s-16.384 34.816-34.816 34.816c-19.456 0-34.816-15.36-34.816-34.816zM432.128 384c0-19.456 15.36-34.816 33.792-34.816 19.456 0 34.816 15.36 34.816 34.816s-15.36 34.816-34.816 34.816c-18.432 0-33.792-15.36-33.792-34.816zM522.24 475.136c0-18.432 15.36-34.816 34.816-34.816s34.816 16.384 34.816 34.816c0 18.432-15.36 33.792-34.816 33.792s-34.816-15.36-34.816-33.792zM613.376 656.384c0-18.432 15.36-34.816 34.816-34.816 18.432 0 34.816 15.36 34.816 34.816s-16.384 34.816-34.816 34.816c-19.456 0-34.816-15.36-34.816-34.816zM613.376 201.728c0-18.432 15.36-33.792 34.816-33.792 18.432 0 34.816 15.36 34.816 33.792 0 19.456-16.384 34.816-34.816 34.816-19.456 0-34.816-15.36-34.816-34.816zM613.376 566.272c0-19.456 15.36-34.816 34.816-34.816 18.432 0 34.816 15.36 34.816 34.816s-16.384 34.816-34.816 34.816c-19.456 0-34.816-15.36-34.816-34.816zM613.376 384c0-19.456 15.36-34.816 34.816-34.816 18.432 0 34.816 15.36 34.816 34.816s-16.384 34.816-34.816 34.816c-19.456 0-34.816-15.36-34.816-34.816zM613.376 475.136c0-18.432 15.36-34.816 34.816-34.816 18.432 0 34.816 16.384 34.816 34.816s-16.384 33.792-34.816 33.792c-19.456 0-34.816-15.36-34.816-33.792zM613.376 293.888c0-19.456 15.36-34.816 34.816-34.816 18.432 0 34.816 15.36 34.816 34.816 0 18.432-16.384 33.792-34.816 33.792-19.456 0-34.816-15.36-34.816-33.792z" />
<glyph unicode="&#xe94c;" glyph-name="arrow-right-12" d="M501.76 566.272c0-19.456-15.36-34.816-34.816-34.816s-34.816 15.36-34.816 34.816c0 19.456 15.36 34.816 34.816 34.816s34.816-15.36 34.816-34.816zM501.76 384c0-19.456-15.36-34.816-34.816-34.816s-34.816 15.36-34.816 34.816c0 19.456 15.36 34.816 34.816 34.816s34.816-15.36 34.816-34.816zM501.76 293.888c0-19.456-15.36-34.816-34.816-34.816s-34.816 15.36-34.816 34.816c0 18.432 15.36 33.792 34.816 33.792s34.816-15.36 34.816-33.792zM501.76 201.728c0-18.432-15.36-33.792-34.816-33.792s-34.816 15.36-34.816 33.792c0 19.456 15.36 34.816 34.816 34.816s34.816-15.36 34.816-34.816zM591.872 293.888c0-19.456-15.36-34.816-33.792-34.816-19.456 0-34.816 15.36-34.816 34.816 0 18.432 15.36 33.792 34.816 33.792 18.432 0 33.792-15.36 33.792-33.792zM591.872 475.136c0-18.432-15.36-34.816-33.792-34.816-19.456 0-34.816 16.384-34.816 34.816s15.36 33.792 34.816 33.792c18.432 0 33.792-15.36 33.792-33.792zM410.624 111.616c0-19.456-15.36-34.816-34.816-34.816-18.432 0-34.816 15.36-34.816 34.816s16.384 34.816 34.816 34.816c19.456 0 34.816-15.36 34.816-34.816zM683.008 384c0-19.456-15.36-34.816-34.816-34.816-18.432 0-34.816 15.36-34.816 34.816s16.384 34.816 34.816 34.816c19.456 0 34.816-15.36 34.816-34.816zM591.872 384c0-19.456-15.36-34.816-33.792-34.816-19.456 0-34.816 15.36-34.816 34.816s15.36 34.816 34.816 34.816c18.432 0 33.792-15.36 33.792-34.816zM501.76 475.136c0-18.432-15.36-34.816-34.816-34.816s-34.816 16.384-34.816 34.816c0 18.432 15.36 33.792 34.816 33.792s34.816-15.36 34.816-33.792zM410.624 656.384c0-18.432-15.36-34.816-34.816-34.816-18.432 0-34.816 15.36-34.816 34.816s16.384 34.816 34.816 34.816c19.456 0 34.816-15.36 34.816-34.816zM410.624 201.728c0-18.432-15.36-33.792-34.816-33.792-18.432 0-34.816 15.36-34.816 33.792 0 19.456 16.384 34.816 34.816 34.816 19.456 0 34.816-15.36 34.816-34.816zM410.624 566.272c0-19.456-15.36-34.816-34.816-34.816-18.432 0-34.816 15.36-34.816 34.816s16.384 34.816 34.816 34.816c19.456 0 34.816-15.36 34.816-34.816zM410.624 384c0-19.456-15.36-34.816-34.816-34.816-18.432 0-34.816 15.36-34.816 34.816s16.384 34.816 34.816 34.816c19.456 0 34.816-15.36 34.816-34.816zM410.624 475.136c0-18.432-15.36-34.816-34.816-34.816-18.432 0-34.816 16.384-34.816 34.816s16.384 33.792 34.816 33.792c19.456 0 34.816-15.36 34.816-33.792zM410.624 293.888c0-19.456-15.36-34.816-34.816-34.816-18.432 0-34.816 15.36-34.816 34.816 0 18.432 16.384 33.792 34.816 33.792 19.456 0 34.816-15.36 34.816-33.792z" />
<glyph unicode="&#xe94d;" glyph-name="elite-grid" d="M589.824 214.016h-288.768c-7.168 0-13.312 7.168-13.312 15.36v0c0 8.192 6.144 15.36 13.312 15.36h287.744c7.168 0 13.312-7.168 13.312-15.36v0c1.024-8.192-5.12-15.36-12.288-15.36zM748.544 162.816h-447.488c-7.168 0-13.312 7.168-13.312 15.36v0c0 8.192 6.144 15.36 13.312 15.36h447.488c7.168 0 13.312-7.168 13.312-15.36v0c0-8.192-6.144-15.36-13.312-15.36zM860.16 100.352h-563.2c-5.12 0-9.216 4.096-9.216 10.24v0c0 6.144 3.072 10.24 9.216 10.24h563.2c5.12 0 9.216-4.096 9.216-10.24v0c-1.024-5.12-5.12-10.24-9.216-10.24zM672.768 59.392h-375.808c-5.12 0-9.216 4.096-9.216 10.24v0c0 6.144 3.072 10.24 9.216 10.24h375.808c5.12 0 9.216-4.096 9.216-10.24v0c0-5.12-3.072-10.24-9.216-10.24zM228.352 234.496h-69.632c-3.072 0-5.12 2.048-5.12 5.12v0c0 3.072 2.048 5.12 5.12 5.12h69.632c3.072 0 5.12-2.048 5.12-5.12v0c0-3.072-2.048-5.12-5.12-5.12zM193.536 329.728c-23.552 0-41.984 19.456-41.984 41.984 0 23.552 19.456 43.008 41.984 43.008s41.984-19.456 41.984-43.008-18.432-41.984-41.984-41.984zM193.536 409.6c-20.48 0-36.864-16.384-36.864-37.888s16.384-36.864 36.864-36.864 36.864 16.384 36.864 36.864-16.384 37.888-36.864 37.888zM193.536 366.592c-8.192 0-14.336 7.168-14.336 15.36s7.168 15.36 14.336 15.36c8.192 0 15.36-7.168 15.36-15.36s-7.168-15.36-15.36-15.36zM193.536 391.168c-5.12 0-9.216-4.096-9.216-10.24s4.096-10.24 9.216-10.24 10.24 4.096 10.24 10.24-5.12 10.24-10.24 10.24zM163.84 346.112l-5.12 2.048c6.144 14.336 19.456 24.576 33.792 24.576 15.36 0 29.696-10.24 33.792-24.576l-5.12-1.024c-4.096 12.288-16.384 20.48-29.696 20.48-11.264-1.024-22.528-9.216-27.648-21.504zM304.128 366.592h-48.128c-2.048 0-4.096 2.048-4.096 4.096v0c0 2.048 2.048 4.096 4.096 4.096h48.128c2.048 0 4.096-2.048 4.096-4.096v0c0-2.048-2.048-4.096-4.096-4.096zM402.432 366.592h-63.488c-2.048 0-4.096 2.048-4.096 4.096v0c0 2.048 2.048 4.096 4.096 4.096h63.488c2.048 0 4.096-2.048 4.096-4.096v0c-1.024-2.048-2.048-4.096-4.096-4.096zM849.92 708.608h-675.84c-11.264 0-20.48-9.216-20.48-20.48v-228.352c0-11.264 9.216-20.48 20.48-20.48h253.952c5.12 0 10.24-4.096 10.24-10.24v-103.424c0-16.384 13.312-30.72 30.72-30.72h372.736c7.168 0 13.312 2.048 18.432 6.144 7.168 3.072 12.288 10.24 12.288 18.432v368.64c-2.048 11.264-11.264 20.48-22.528 20.48zM512 656.384c29.696 0 53.248-23.552 53.248-53.248s-23.552-53.248-53.248-53.248-53.248 23.552-53.248 53.248c0 29.696 23.552 53.248 53.248 53.248zM320.512 557.056c7.168 6.144 16.384 9.216 25.6 9.216s18.432-3.072 25.6-9.216l102.4-83.968c10.24-9.216 24.576-13.312 37.888-13.312 14.336 0 27.648 5.12 38.912 13.312l131.072 105.472c7.168 6.144 16.384 9.216 25.6 9.216 12.288 0 23.552-5.12 30.72-14.336l100.352-117.76c8.192-10.24 13.312-22.528 13.312-35.84v-94.208c0-5.12-4.096-10.24-10.24-10.24h-373.76c-5.12 0-10.24 4.096-10.24 10.24v103.424c0 14.336-9.216 25.6-22.528 28.672 0 0 0 0 0 0-2.048 1.024-5.12 1.024-8.192 1.024h-225.28l118.784 98.304z" />
<glyph unicode="&#xe94e;" glyph-name="hazel-carousel" d="M479.232 549.888h-338.944c-5.12 0-9.216-4.096-9.216-9.216v-198.656c0 3.072 1.024 5.12 3.072 7.168l53.248 47.104 10.24 9.216c9.216 9.216 25.6 7.168 33.792-4.096l4.096-5.12 27.648-38.912c8.192-11.264 24.576-13.312 33.792-3.072l43.008 41.984 36.864 35.84c9.216 9.216 24.576 8.192 33.792-2.048l28.672-33.792 48.128-59.392c1.024-1.024 1.024-2.048 2.048-3.072s0-2.048 0-3.072v208.896c-1.024 6.144-5.12 10.24-10.24 10.24zM283.648 415.744c-16.384 0-29.696 13.312-29.696 29.696s13.312 29.696 29.696 29.696 29.696-13.312 29.696-29.696-13.312-29.696-29.696-29.696zM223.232 350.208h-52.224c-5.12 0-8.192-2.048-11.264-5.12s-5.12-7.168-5.12-11.264c0-8.192 7.168-16.384 16.384-16.384h52.224c5.12 0 8.192 2.048 11.264 5.12s5.12 7.168 5.12 11.264c-1.024 8.192-7.168 16.384-16.384 16.384zM220.16 330.752h-46.080c-2.048 0-3.072 1.024-3.072 3.072s1.024 3.072 3.072 3.072h46.080c2.048 0 3.072-1.024 3.072-3.072s-2.048-3.072-3.072-3.072zM883.712 549.888h-337.92c-5.12 0-9.216-4.096-9.216-9.216v-198.656c0 3.072 1.024 5.12 3.072 7.168l53.248 47.104 10.24 9.216c9.216 9.216 25.6 7.168 33.792-4.096l4.096-5.12 27.648-38.912c8.192-11.264 24.576-13.312 33.792-3.072l43.008 41.984 36.864 35.84c9.216 9.216 24.576 8.192 33.792-2.048l28.672-33.792 48.128-59.392c1.024-1.024 1.024-2.048 2.048-3.072s0-2.048 0-3.072v208.896c-1.024 6.144-5.12 10.24-11.264 10.24zM689.152 415.744c-16.384 0-29.696 13.312-29.696 29.696s13.312 29.696 29.696 29.696 29.696-13.312 29.696-29.696c-1.024-16.384-13.312-29.696-29.696-29.696zM627.712 350.208h-52.224c-5.12 0-8.192-2.048-11.264-5.12s-5.12-7.168-5.12-11.264c0-8.192 7.168-16.384 16.384-16.384h52.224c5.12 0 8.192 2.048 11.264 5.12s5.12 7.168 5.12 11.264c0 8.192-7.168 16.384-16.384 16.384zM625.664 330.752h-47.104c-2.048 0-3.072 1.024-3.072 3.072s1.024 3.072 3.072 3.072h46.080c2.048 0 3.072-1.024 3.072-3.072s-2.048-3.072-2.048-3.072zM352.256 270.336h-188.416c-6.144 0-9.216 4.096-9.216 9.216v0c0 6.144 4.096 9.216 9.216 9.216h188.416c6.144 0 9.216-4.096 9.216-9.216v0c0-5.12-3.072-9.216-9.216-9.216zM451.584 237.568h-292.864c-3.072 0-5.12 2.048-5.12 5.12v0c0 3.072 2.048 5.12 5.12 5.12h292.864c3.072 0 5.12-2.048 5.12-5.12v0c0-3.072-2.048-5.12-5.12-5.12zM385.024 218.112h-226.304c-3.072 0-5.12 2.048-5.12 5.12v0c0 3.072 2.048 5.12 5.12 5.12h226.304c3.072 0 5.12-2.048 5.12-5.12v0c0-3.072-2.048-5.12-5.12-5.12zM756.736 270.336h-187.392c-6.144 0-9.216 4.096-9.216 9.216v0c0 6.144 4.096 9.216 9.216 9.216h188.416c6.144 0 9.216-4.096 9.216-9.216v0c-1.024-5.12-5.12-9.216-10.24-9.216zM856.064 237.568h-291.84c-3.072 0-5.12 2.048-5.12 5.12v0c0 3.072 2.048 5.12 5.12 5.12h292.864c3.072 0 5.12-2.048 5.12-5.12v0c-1.024-3.072-3.072-5.12-6.144-5.12zM789.504 218.112h-225.28c-3.072 0-5.12 2.048-5.12 5.12v0c0 3.072 2.048 5.12 5.12 5.12h226.304c3.072 0 5.12-2.048 5.12-5.12v0c-1.024-3.072-3.072-5.12-6.144-5.12zM965.632 337.92c-25.6 0-46.080 20.48-46.080 46.080s20.48 46.080 46.080 46.080 46.080-20.48 46.080-46.080-20.48-46.080-46.080-46.080zM965.632 419.84c-19.456 0-35.84-16.384-35.84-35.84s16.384-35.84 35.84-35.84 35.84 16.384 35.84 35.84-16.384 35.84-35.84 35.84zM59.392 337.92c-25.6 0-46.080 20.48-46.080 46.080s20.48 46.080 46.080 46.080 46.080-20.48 46.080-46.080-21.504-46.080-46.080-46.080zM59.392 419.84c-19.456 0-35.84-16.384-35.84-35.84s16.384-35.84 35.84-35.84 35.84 16.384 35.84 35.84-16.384 35.84-35.84 35.84zM63.488 367.616c-1.024 0-3.072 0-4.096 1.024l-8.192 9.216c-2.048 2.048-3.072 4.096-3.072 6.144s1.024 5.12 3.072 6.144l9.216 9.216c2.048 2.048 5.12 2.048 7.168 0s2.048-5.12 0-7.168l-8.192-8.192 8.192-8.192c2.048-2.048 2.048-5.12 0-7.168-1.024-1.024-2.048-1.024-4.096-1.024zM960.512 367.616c-1.024 0-3.072 0-4.096 1.024-2.048 2.048-2.048 5.12 0 7.168l8.192 8.192-8.192 8.192c-2.048 2.048-2.048 5.12 0 7.168s5.12 2.048 7.168 0l9.216-9.216c3.072-3.072 3.072-9.216 0-12.288l-9.216-9.216c0-1.024-2.048-1.024-3.072-1.024zM965.632 382.976v0 0z" />
<glyph unicode="&#xe94f;" glyph-name="hazel-grid" d="M476.16 562.176h-364.544c-5.12 0-10.24-4.096-10.24-10.24v-214.016c0 3.072 1.024 5.12 3.072 7.168l57.344 50.176 11.264 10.24c10.24 10.24 27.648 8.192 35.84-4.096l4.096-5.12 29.696-41.984c9.216-12.288 26.624-14.336 36.864-3.072l46.080 45.056 39.936 38.912c10.24 10.24 26.624 9.216 35.84-2.048l30.72-36.864 52.224-63.488c1.024-1.024 1.024-2.048 2.048-3.072s0-2.048 0-3.072v225.28c0 6.144-4.096 10.24-10.24 10.24zM266.24 417.792c-17.408 0-31.744 14.336-31.744 31.744s14.336 31.744 31.744 31.744c17.408 0 31.744-14.336 31.744-31.744s-14.336-31.744-31.744-31.744zM200.704 347.136h-56.32c-5.12 0-9.216-2.048-12.288-5.12s-5.12-7.168-5.12-12.288c0-9.216 7.168-17.408 17.408-17.408h56.32c5.12 0 9.216 2.048 12.288 5.12s5.12 7.168 5.12 12.288c0 9.216-7.168 17.408-17.408 17.408zM197.632 326.656h-49.152c-2.048 0-3.072 1.024-3.072 3.072s1.024 3.072 3.072 3.072h49.152c2.048 0 3.072-1.024 3.072-3.072s-2.048-3.072-3.072-3.072zM912.384 562.176h-364.544c-5.12 0-10.24-4.096-10.24-10.24v-214.016c0 3.072 1.024 5.12 3.072 7.168l57.344 50.176 11.264 10.24c10.24 10.24 27.648 8.192 35.84-4.096l4.096-5.12 29.696-41.984c9.216-12.288 26.624-14.336 36.864-3.072l46.080 45.056 39.936 38.912c10.24 10.24 26.624 9.216 35.84-2.048l30.72-36.864 52.224-63.488c1.024-1.024 1.024-2.048 2.048-3.072s0-2.048 0-3.072v225.28c0 6.144-4.096 10.24-10.24 10.24zM702.464 417.792c-17.408 0-31.744 14.336-31.744 31.744s14.336 31.744 31.744 31.744 31.744-14.336 31.744-31.744c-1.024-17.408-14.336-31.744-31.744-31.744zM636.928 347.136h-56.32c-5.12 0-9.216-2.048-12.288-5.12s-5.12-7.168-5.12-12.288c0-9.216 7.168-17.408 17.408-17.408h56.32c5.12 0 9.216 2.048 12.288 5.12s5.12 7.168 5.12 12.288c0 9.216-8.192 17.408-17.408 17.408zM633.856 326.656h-50.176c-2.048 0-3.072 1.024-3.072 3.072s1.024 3.072 3.072 3.072h49.152c2.048 0 3.072-1.024 3.072-3.072s-1.024-3.072-2.048-3.072zM339.968 262.144h-202.752c-6.144 0-10.24 4.096-10.24 10.24v0c0 6.144 4.096 10.24 10.24 10.24h202.752c6.144 0 10.24-4.096 10.24-10.24v0c0-6.144-4.096-10.24-10.24-10.24zM447.488 226.304h-315.392c-3.072 0-5.12 2.048-5.12 5.12v0c0 3.072 2.048 5.12 5.12 5.12h315.392c3.072 0 5.12-2.048 5.12-5.12v0c0-3.072-2.048-5.12-5.12-5.12zM375.808 205.824h-243.712c-3.072 0-5.12 2.048-5.12 5.12v0c0 3.072 2.048 5.12 5.12 5.12h243.712c3.072 0 5.12-2.048 5.12-5.12v0c0-3.072-2.048-5.12-5.12-5.12zM775.168 262.144h-201.728c-6.144 0-10.24 4.096-10.24 10.24v0c0 6.144 4.096 10.24 10.24 10.24h202.752c6.144 0 10.24-4.096 10.24-10.24v0c-1.024-6.144-5.12-10.24-11.264-10.24zM882.688 226.304h-314.368c-3.072 0-5.12 2.048-5.12 5.12v0c0 3.072 2.048 5.12 5.12 5.12h315.392c3.072 0 5.12-2.048 5.12-5.12v0c-1.024-3.072-3.072-5.12-6.144-5.12zM811.008 205.824h-242.688c-3.072 0-5.12 2.048-5.12 5.12v0c0 3.072 2.048 5.12 5.12 5.12h243.712c3.072 0 5.12-2.048 5.12-5.12v0c-1.024-3.072-3.072-5.12-6.144-5.12z" />
<glyph unicode="&#xe950;" glyph-name="maple-grid" d="M450.56 742.4h-314.368c-17.408 0-30.72-13.312-30.72-30.72v-209.92c0-17.408 13.312-30.72 30.72-30.72h314.368c17.408 0 30.72 13.312 30.72 30.72v209.92c0 17.408-13.312 30.72-30.72 30.72zM292.864 697.344c19.456 0 34.816-15.36 34.816-34.816s-15.36-34.816-34.816-34.816-34.816 15.36-34.816 34.816 16.384 34.816 34.816 34.816zM460.8 501.76c0-6.144-4.096-10.24-10.24-10.24h-314.368c-6.144 0-10.24 4.096-10.24 10.24v37.888c0 5.12 2.048 9.216 6.144 11.264l62.464 48.128c9.216 7.168 21.504 7.168 30.72 1.024l40.96-26.624c15.36-10.24 35.84-10.24 52.224 0l50.176 33.792c11.264 7.168 25.6 5.12 34.816-4.096l53.248-57.344c3.072-3.072 4.096-6.144 4.096-10.24 0 0 0-33.792 0-33.792zM886.784 742.4h-314.368c-17.408 0-30.72-13.312-30.72-30.72v-209.92c0-17.408 13.312-30.72 30.72-30.72h315.392c17.408 0 30.72 13.312 30.72 30.72v209.92c-1.024 17.408-14.336 30.72-31.744 30.72zM730.112 697.344c19.456 0 34.816-15.36 34.816-34.816s-15.36-34.816-34.816-34.816-34.816 15.36-34.816 34.816 15.36 34.816 34.816 34.816zM897.024 501.76c0-6.144-4.096-10.24-10.24-10.24h-314.368c-6.144 0-10.24 4.096-10.24 10.24v37.888c0 5.12 2.048 9.216 6.144 11.264l63.488 49.152c9.216 7.168 21.504 7.168 30.72 1.024l40.96-26.624c15.36-10.24 35.84-10.24 52.224 0l50.176 33.792c11.264 7.168 25.6 5.12 34.816-4.096l53.248-57.344c3.072-3.072 4.096-6.144 4.096-10.24l-1.024-34.816zM245.76 291.84h-124.928c-8.192 0-15.36-7.168-15.36-15.36v-81.92c0-8.192 7.168-15.36 15.36-15.36h124.928c8.192 0 15.36 7.168 15.36 15.36v81.92c0 8.192-7.168 15.36-15.36 15.36zM183.296 272.384c8.192 0 14.336-6.144 14.336-14.336s-6.144-14.336-14.336-14.336-14.336 6.144-14.336 14.336 6.144 14.336 14.336 14.336zM250.88 194.56c0-3.072-2.048-5.12-5.12-5.12h-124.928c-3.072 0-5.12 2.048-5.12 5.12v13.312c0 2.048 1.024 3.072 2.048 4.096l25.6 19.456c3.072 3.072 8.192 3.072 11.264 0l16.384-10.24c7.168-4.096 15.36-4.096 22.528 0l20.48 13.312c4.096 3.072 9.216 2.048 13.312-2.048l21.504-23.552c1.024-1.024 1.024-2.048 1.024-3.072l1.024-11.264zM317.44 409.6h-201.728c-6.144 0-10.24 4.096-10.24 10.24v0c0 6.144 4.096 10.24 10.24 10.24h201.728c6.144 0 10.24-4.096 10.24-10.24v0c0-6.144-4.096-10.24-10.24-10.24zM424.96 373.76h-314.368c-3.072 0-5.12 2.048-5.12 5.12v0c0 3.072 2.048 5.12 5.12 5.12h315.392c3.072 0 5.12-2.048 5.12-5.12v0c-1.024-3.072-3.072-5.12-6.144-5.12zM353.28 353.28h-242.688c-3.072 0-5.12 2.048-5.12 5.12v0c0 3.072 2.048 5.12 5.12 5.12h243.712c3.072 0 5.12-2.048 5.12-5.12v0c-1.024-3.072-3.072-5.12-6.144-5.12zM407.552 252.928h-119.808c-6.144 0-10.24 4.096-10.24 10.24v0c0 6.144 4.096 10.24 10.24 10.24h118.784c6.144 0 10.24-4.096 10.24-10.24v0c1.024-5.12-4.096-10.24-9.216-10.24zM476.16 217.088h-193.536c-3.072 0-5.12 2.048-5.12 5.12v0c0 3.072 2.048 5.12 5.12 5.12h193.536c3.072 0 5.12-2.048 5.12-5.12v0c0-3.072-2.048-5.12-5.12-5.12zM431.104 196.608h-148.48c-3.072 0-5.12 2.048-5.12 5.12v0c0 3.072 2.048 5.12 5.12 5.12h148.48c3.072 0 5.12-2.048 5.12-5.12v0c0-3.072-2.048-5.12-5.12-5.12zM683.008 291.84h-124.928c-8.192 0-15.36-7.168-15.36-15.36v-81.92c0-8.192 7.168-15.36 15.36-15.36h124.928c8.192 0 15.36 7.168 15.36 15.36v81.92c0 8.192-7.168 15.36-15.36 15.36zM620.544 272.384c8.192 0 14.336-6.144 14.336-14.336s-6.144-14.336-14.336-14.336c-8.192 0-14.336 6.144-14.336 14.336s6.144 14.336 14.336 14.336zM688.128 194.56c0-3.072-2.048-5.12-5.12-5.12h-124.928c-3.072 0-5.12 2.048-5.12 5.12v13.312c0 2.048 1.024 3.072 2.048 4.096l25.6 19.456c3.072 3.072 8.192 3.072 11.264 0l16.384-10.24c7.168-4.096 15.36-4.096 22.528 0l20.48 13.312c4.096 3.072 9.216 2.048 13.312-2.048l21.504-23.552c1.024-1.024 1.024-2.048 1.024-3.072l1.024-11.264zM844.8 252.928h-118.784c-6.144 0-10.24 4.096-10.24 10.24v0c0 6.144 4.096 10.24 10.24 10.24h118.784c6.144 0 10.24-4.096 10.24-10.24v0c0-5.12-5.12-10.24-10.24-10.24zM913.408 217.088h-192.512c-3.072 0-5.12 2.048-5.12 5.12v0c0 3.072 2.048 5.12 5.12 5.12h193.536c3.072 0 5.12-2.048 5.12-5.12v0c-1.024-3.072-3.072-5.12-6.144-5.12zM869.376 196.608h-148.48c-3.072 0-5.12 2.048-5.12 5.12v0c0 3.072 2.048 5.12 5.12 5.12h148.48c3.072 0 5.12-2.048 5.12-5.12v0c0-3.072-3.072-5.12-5.12-5.12zM245.76 138.24h-124.928c-8.192 0-15.36-7.168-15.36-15.36v-81.92c0-8.192 7.168-15.36 15.36-15.36h124.928c8.192 0 15.36 7.168 15.36 15.36v81.92c0 9.216-7.168 15.36-15.36 15.36zM183.296 118.784c8.192 0 14.336-6.144 14.336-14.336s-6.144-14.336-14.336-14.336-14.336 6.144-14.336 14.336 6.144 14.336 14.336 14.336zM250.88 40.96c0-3.072-2.048-5.12-5.12-5.12h-124.928c-3.072 0-5.12 2.048-5.12 5.12v13.312c0 2.048 1.024 3.072 2.048 4.096l25.6 19.456c3.072 3.072 8.192 3.072 11.264 0l16.384-10.24c7.168-4.096 15.36-4.096 22.528 0l20.48 13.312c4.096 3.072 9.216 2.048 13.312-2.048l21.504-23.552c1.024-1.024 1.024-2.048 1.024-3.072l1.024-11.264zM407.552 100.352h-119.808c-6.144 0-10.24 4.096-10.24 10.24v0c0 6.144 4.096 10.24 10.24 10.24h118.784c6.144 0 10.24-4.096 10.24-10.24v0c1.024-6.144-4.096-10.24-9.216-10.24zM476.16 64.512h-193.536c-3.072 0-5.12 2.048-5.12 5.12v0c0 3.072 2.048 5.12 5.12 5.12h193.536c3.072 0 5.12-2.048 5.12-5.12v0c0-3.072-2.048-5.12-5.12-5.12zM431.104 44.032h-148.48c-3.072 0-5.12 2.048-5.12 5.12v0c0 3.072 2.048 5.12 5.12 5.12h148.48c3.072 0 5.12-2.048 5.12-5.12v0c0-3.072-2.048-5.12-5.12-5.12zM683.008 138.24h-124.928c-8.192 0-15.36-7.168-15.36-15.36v-81.92c0-8.192 7.168-15.36 15.36-15.36h124.928c8.192 0 15.36 7.168 15.36 15.36v81.92c0 9.216-7.168 15.36-15.36 15.36zM620.544 118.784c8.192 0 14.336-6.144 14.336-14.336s-6.144-14.336-14.336-14.336c-8.192 0-14.336 6.144-14.336 14.336s6.144 14.336 14.336 14.336zM688.128 40.96c0-3.072-2.048-5.12-5.12-5.12h-124.928c-3.072 0-5.12 2.048-5.12 5.12v13.312c0 2.048 1.024 3.072 2.048 4.096l25.6 19.456c3.072 3.072 8.192 3.072 11.264 0l16.384-10.24c7.168-4.096 15.36-4.096 22.528 0l20.48 13.312c4.096 3.072 9.216 2.048 13.312-2.048l21.504-23.552c1.024-1.024 1.024-2.048 1.024-3.072l1.024-11.264zM844.8 100.352h-118.784c-6.144 0-10.24 4.096-10.24 10.24v0c0 6.144 4.096 10.24 10.24 10.24h118.784c6.144 0 10.24-4.096 10.24-10.24v0c0-6.144-5.12-10.24-10.24-10.24zM913.408 64.512h-192.512c-3.072 0-5.12 2.048-5.12 5.12v0c0 3.072 2.048 5.12 5.12 5.12h193.536c3.072 0 5.12-2.048 5.12-5.12v0c-1.024-3.072-3.072-5.12-6.144-5.12zM869.376 44.032h-148.48c-3.072 0-5.12 2.048-5.12 5.12v0c0 3.072 2.048 5.12 5.12 5.12h148.48c3.072 0 5.12-2.048 5.12-5.12v0c0-3.072-3.072-5.12-5.12-5.12zM753.664 409.6h-201.728c-6.144 0-10.24 4.096-10.24 10.24v0c0 6.144 4.096 10.24 10.24 10.24h202.752c6.144 0 10.24-4.096 10.24-10.24v0c-1.024-6.144-5.12-10.24-11.264-10.24zM861.184 373.76h-314.368c-3.072 0-5.12 2.048-5.12 5.12v0c0 3.072 2.048 5.12 5.12 5.12h315.392c3.072 0 5.12-2.048 5.12-5.12v0c-1.024-3.072-3.072-5.12-6.144-5.12zM789.504 353.28h-242.688c-3.072 0-5.12 2.048-5.12 5.12v0c0 3.072 2.048 5.12 5.12 5.12h243.712c3.072 0 5.12-2.048 5.12-5.12v0c-1.024-3.072-3.072-5.12-6.144-5.12z" />
<glyph unicode="&#xe951;" glyph-name="alex-carousel" d="M414.72 361.472h-41.984c-3.072 0-5.12 2.048-5.12 5.12v0c0 3.072 2.048 5.12 5.12 5.12h41.984c3.072 0 5.12-2.048 5.12-5.12v0c0-3.072-3.072-5.12-5.12-5.12zM472.064 494.592h-312.32c-9.216 0-15.36-7.168-15.36-15.36v-188.416c0-9.216 7.168-15.36 15.36-15.36h182.272c5.12 0 9.216 4.096 9.216 9.216v107.52h125.952c5.12 0 9.216 4.096 9.216 9.216v78.848c1.024 6.144-5.12 14.336-14.336 14.336zM315.392 460.8c16.384 0 29.696-13.312 29.696-29.696s-13.312-29.696-29.696-29.696c-16.384 0-29.696 13.312-29.696 29.696s13.312 29.696 29.696 29.696zM342.016 284.672h-182.272c-3.072 0-5.12 3.072-5.12 5.12v38.912c0 2.048 1.024 3.072 2.048 4.096l67.584 54.272c0 0 1.024 0 2.048 1.024 1.024 0 1.024 0 2.048 1.024 1.024 0 1.024 0 2.048 0 0 0 1.024 0 2.048 1.024 1.024 0 1.024 0 2.048 0s2.048 1.024 2.048 1.024h7.168c1.024 0 1.024 0 2.048-1.024 1.024 0 1.024 0 2.048 0 0 0 1.024-1.024 2.048-1.024s1.024 0 2.048 0c0 0 1.024 0 2.048-1.024 1.024 0 1.024 0 1.024 0l50.176-31.744c5.12-3.072 11.264-5.12 17.408-5.12s12.288 2.048 17.408 5.12l7.168 5.12v-76.8zM459.776 329.728h-84.992c-4.096 0-7.168 3.072-7.168 7.168v0c0 4.096 3.072 7.168 7.168 7.168h84.992c4.096 0 7.168-3.072 7.168-7.168v0c0-4.096-3.072-7.168-7.168-7.168zM420.864 306.176h-46.080c-4.096 0-7.168 3.072-7.168 7.168v0c0 4.096 3.072 7.168 7.168 7.168h46.080c4.096 0 7.168-3.072 7.168-7.168v0c0-4.096-3.072-7.168-7.168-7.168zM806.912 361.472h-41.984c-3.072 0-5.12 2.048-5.12 5.12v0c0 3.072 2.048 5.12 5.12 5.12h41.984c3.072 0 5.12-2.048 5.12-5.12v0c0-3.072-3.072-5.12-5.12-5.12zM864.256 494.592h-312.32c-9.216 0-15.36-7.168-15.36-15.36v-188.416c0-9.216 7.168-15.36 15.36-15.36h182.272c5.12 0 9.216 4.096 9.216 9.216v107.52h126.976c5.12 0 9.216 4.096 9.216 9.216v78.848c1.024 6.144-6.144 14.336-15.36 14.336zM708.608 460.8c16.384 0 29.696-13.312 29.696-29.696s-13.312-29.696-29.696-29.696c-16.384 0-29.696 13.312-29.696 29.696-1.024 16.384 13.312 29.696 29.696 29.696zM734.208 284.672h-182.272c-3.072 0-5.12 3.072-5.12 5.12v38.912c0 2.048 1.024 3.072 2.048 4.096l67.584 54.272c0 0 1.024 0 2.048 1.024 1.024 0 1.024 0 2.048 1.024 1.024 0 1.024 0 2.048 0 0 0 1.024 0 2.048 1.024 1.024 0 1.024 0 2.048 0s2.048 1.024 2.048 1.024h7.168c1.024 0 1.024 0 2.048-1.024 1.024 0 1.024 0 2.048 0 0 0 1.024-1.024 2.048-1.024s1.024 0 2.048 0c0 0 1.024 0 2.048-1.024 1.024 0 1.024 0 1.024 0l50.176-31.744c5.12-3.072 11.264-5.12 17.408-5.12s12.288 2.048 17.408 5.12l7.168 5.12v-76.8zM851.968 329.728h-84.992c-4.096 0-7.168 3.072-7.168 7.168v0c0 4.096 3.072 7.168 7.168 7.168h84.992c4.096 0 7.168-3.072 7.168-7.168v0c0-4.096-3.072-7.168-7.168-7.168zM813.056 306.176h-46.080c-4.096 0-7.168 3.072-7.168 7.168v0c0 4.096 3.072 7.168 7.168 7.168h46.080c4.096 0 7.168-3.072 7.168-7.168v0c1.024-4.096-3.072-7.168-7.168-7.168zM965.632 337.92c-25.6 0-46.080 20.48-46.080 46.080s20.48 46.080 46.080 46.080 46.080-20.48 46.080-46.080-20.48-46.080-46.080-46.080zM965.632 419.84c-19.456 0-35.84-16.384-35.84-35.84s16.384-35.84 35.84-35.84 35.84 16.384 35.84 35.84-17.408 35.84-35.84 35.84zM58.368 337.92c-25.6 0-46.080 20.48-46.080 46.080s20.48 46.080 46.080 46.080 46.080-20.48 46.080-46.080-21.504-46.080-46.080-46.080zM58.368 419.84c-19.456 0-35.84-16.384-35.84-35.84s16.384-35.84 35.84-35.84 35.84 16.384 35.84 35.84-16.384 35.84-35.84 35.84zM62.464 367.616c-1.024 0-3.072 0-4.096 1.024l-8.192 9.216c-2.048 2.048-3.072 4.096-3.072 6.144s1.024 5.12 3.072 6.144l9.216 9.216c2.048 2.048 5.12 2.048 7.168 0s2.048-5.12 0-7.168l-8.192-8.192 8.192-8.192c2.048-2.048 2.048-5.12 0-7.168-1.024-1.024-2.048-1.024-4.096-1.024zM960.512 367.616c-1.024 0-3.072 0-4.096 1.024-2.048 2.048-2.048 5.12 0 7.168l8.192 8.192-8.192 8.192c-2.048 2.048-2.048 5.12 0 7.168s5.12 2.048 7.168 0l9.216-9.216c3.072-3.072 3.072-9.216 0-12.288l-10.24-9.216c0-1.024-2.048-1.024-2.048-1.024zM965.632 382.976v0 0z" />
<glyph unicode="&#xe952;" glyph-name="alex-grid" d="M408.576 502.784h-45.056c-3.072 0-5.12 2.048-5.12 5.12v0c0 3.072 2.048 5.12 5.12 5.12h45.056c3.072 0 5.12-2.048 5.12-5.12v0c0-3.072-3.072-5.12-5.12-5.12zM470.016 644.096h-332.8c-9.216 0-16.384-8.192-16.384-16.384v-200.704c0-9.216 7.168-16.384 16.384-16.384h193.536c5.12 0 10.24 5.12 10.24 10.24v113.664h134.144c5.12 0 10.24 5.12 10.24 10.24v83.968c1.024 7.168-6.144 15.36-15.36 15.36zM303.104 608.256c17.408 0 31.744-14.336 31.744-31.744s-14.336-31.744-31.744-31.744c-17.408 0-31.744 14.336-31.744 31.744s14.336 31.744 31.744 31.744zM330.752 420.864h-193.536c-3.072 0-5.12 3.072-5.12 5.12v41.984c0 2.048 1.024 3.072 2.048 4.096l71.68 57.344c0 0 1.024 0 2.048 1.024 1.024 0 1.024 0 2.048 1.024 1.024 0 1.024 0 2.048 0 0 0 1.024 1.024 2.048 1.024s1.024 0 2.048 0 2.048 1.024 2.048 1.024h7.168c1.024 0 1.024 0 2.048-1.024 1.024 0 1.024 0 2.048 0s1.024-1.024 2.048-1.024c1.024 0 1.024-1.024 2.048-1.024 0 0 1.024 0 2.048-1.024 1.024 0 1.024 0 1.024 0l53.248-33.792c5.12-3.072 11.264-5.12 18.432-5.12 6.144 0 13.312 2.048 18.432 5.12l7.168 5.12v-79.872zM456.704 468.992h-90.112c-4.096 0-8.192 3.072-8.192 8.192v0c0 4.096 3.072 8.192 8.192 8.192h90.112c4.096 0 7.168-3.072 7.168-8.192v0c0-4.096-3.072-8.192-7.168-8.192zM415.744 443.392h-49.152c-4.096 0-8.192 3.072-8.192 8.192v0c0 4.096 3.072 8.192 8.192 8.192h49.152c4.096 0 7.168-3.072 7.168-8.192v0c0-4.096-3.072-8.192-7.168-8.192zM825.344 502.784h-45.056c-3.072 0-5.12 2.048-5.12 5.12v0c0 3.072 2.048 5.12 5.12 5.12h45.056c3.072 0 5.12-2.048 5.12-5.12v0c0-3.072-3.072-5.12-5.12-5.12zM886.784 644.096h-332.8c-9.216 0-16.384-8.192-16.384-16.384v-200.704c0-9.216 7.168-16.384 16.384-16.384h193.536c5.12 0 10.24 5.12 10.24 10.24v113.664h134.144c5.12 0 10.24 5.12 10.24 10.24v83.968c2.048 7.168-6.144 15.36-15.36 15.36zM720.896 608.256c17.408 0 31.744-14.336 31.744-31.744s-14.336-31.744-31.744-31.744c-17.408 0-31.744 14.336-31.744 31.744s14.336 31.744 31.744 31.744zM748.544 420.864h-194.56c-3.072 0-5.12 3.072-5.12 5.12v41.984c0 2.048 1.024 3.072 2.048 4.096l71.68 57.344c0 0 1.024 0 2.048 1.024 1.024 0 1.024 0 2.048 1.024 1.024 0 1.024 0 2.048 0 0 0 1.024 1.024 2.048 1.024s1.024 0 2.048 0 2.048 1.024 2.048 1.024h7.168c1.024 0 1.024 0 2.048-1.024 1.024 0 1.024 0 2.048 0s1.024-1.024 2.048-1.024c1.024 0 1.024-1.024 2.048-1.024 0 0 1.024 0 2.048-1.024 1.024 0 1.024 0 1.024 0l53.248-33.792c5.12-3.072 11.264-5.12 18.432-5.12 6.144 0 13.312 2.048 18.432 5.12l7.168 5.12v-79.872zM873.472 468.992h-90.112c-4.096 0-8.192 3.072-8.192 8.192v0c0 4.096 3.072 8.192 8.192 8.192h90.112c4.096 0 8.192-3.072 8.192-8.192v0c0-4.096-4.096-8.192-8.192-8.192zM832.512 443.392h-49.152c-4.096 0-8.192 3.072-8.192 8.192v0c0 4.096 3.072 8.192 8.192 8.192h49.152c4.096 0 8.192-3.072 8.192-8.192v0c0-4.096-4.096-8.192-8.192-8.192zM408.576 217.088h-45.056c-3.072 0-5.12 2.048-5.12 5.12v0c0 3.072 2.048 5.12 5.12 5.12h45.056c3.072 0 5.12-2.048 5.12-5.12v0c0-3.072-3.072-5.12-5.12-5.12zM470.016 358.4h-332.8c-9.216 0-16.384-8.192-16.384-16.384v-200.704c0-9.216 7.168-16.384 16.384-16.384h193.536c5.12 0 10.24 5.12 10.24 10.24v113.664h134.144c5.12 0 10.24 5.12 10.24 10.24v83.968c1.024 7.168-6.144 15.36-15.36 15.36zM303.104 322.56c17.408 0 31.744-14.336 31.744-31.744s-14.336-31.744-31.744-31.744c-17.408 0-31.744 14.336-31.744 31.744s14.336 31.744 31.744 31.744zM330.752 135.168h-193.536c-3.072 0-5.12 3.072-5.12 5.12v41.984c0 2.048 1.024 3.072 2.048 4.096l71.68 57.344c0 0 1.024 0 2.048 1.024 1.024 0 1.024 0 2.048 1.024 1.024 0 1.024 0 2.048 0 0 0 1.024 1.024 2.048 1.024s1.024 0 2.048 0 2.048 1.024 2.048 1.024h7.168c1.024 0 1.024 0 2.048-1.024 1.024 0 1.024 0 2.048 0s1.024-1.024 2.048-1.024c1.024 0 1.024-1.024 2.048-1.024 0 0 1.024 0 2.048-1.024 1.024 0 1.024 0 1.024 0l53.248-33.792c5.12-3.072 11.264-5.12 18.432-5.12 6.144 0 13.312 2.048 18.432 5.12l7.168 5.12v-79.872zM456.704 183.296h-90.112c-4.096 0-8.192 3.072-8.192 8.192v0c0 4.096 3.072 8.192 8.192 8.192h90.112c4.096 0 7.168-3.072 7.168-8.192v0c0-4.096-3.072-8.192-7.168-8.192zM415.744 157.696h-49.152c-4.096 0-8.192 3.072-8.192 8.192v0c0 4.096 3.072 8.192 8.192 8.192h49.152c4.096 0 7.168-3.072 7.168-8.192v0c0-4.096-3.072-8.192-7.168-8.192zM825.344 217.088h-45.056c-3.072 0-5.12 2.048-5.12 5.12v0c0 3.072 2.048 5.12 5.12 5.12h45.056c3.072 0 5.12-2.048 5.12-5.12v0c0-3.072-3.072-5.12-5.12-5.12zM886.784 358.4h-332.8c-9.216 0-16.384-8.192-16.384-16.384v-200.704c0-9.216 7.168-16.384 16.384-16.384h193.536c5.12 0 10.24 5.12 10.24 10.24v113.664h134.144c5.12 0 10.24 5.12 10.24 10.24v83.968c2.048 7.168-6.144 15.36-15.36 15.36zM720.896 322.56c17.408 0 31.744-14.336 31.744-31.744s-14.336-31.744-31.744-31.744c-17.408 0-31.744 14.336-31.744 31.744s14.336 31.744 31.744 31.744zM748.544 135.168h-194.56c-3.072 0-5.12 3.072-5.12 5.12v41.984c0 2.048 1.024 3.072 2.048 4.096l71.68 57.344c0 0 1.024 0 2.048 1.024 1.024 0 1.024 0 2.048 1.024 1.024 0 1.024 0 2.048 0 0 0 1.024 1.024 2.048 1.024s1.024 0 2.048 0 2.048 1.024 2.048 1.024h7.168c1.024 0 1.024 0 2.048-1.024 1.024 0 1.024 0 2.048 0s1.024-1.024 2.048-1.024c1.024 0 1.024-1.024 2.048-1.024 0 0 1.024 0 2.048-1.024 1.024 0 1.024 0 1.024 0l53.248-33.792c5.12-3.072 11.264-5.12 18.432-5.12 6.144 0 13.312 2.048 18.432 5.12l7.168 5.12v-79.872zM873.472 183.296h-90.112c-4.096 0-8.192 3.072-8.192 8.192v0c0 4.096 3.072 8.192 8.192 8.192h90.112c4.096 0 8.192-3.072 8.192-8.192v0c0-4.096-4.096-8.192-8.192-8.192zM832.512 157.696h-49.152c-4.096 0-8.192 3.072-8.192 8.192v0c0 4.096 3.072 8.192 8.192 8.192h49.152c4.096 0 8.192-3.072 8.192-8.192v0c0-4.096-4.096-8.192-8.192-8.192z" />
<glyph unicode="&#xe953;" glyph-name="ramble-grid" d="M432.128 198.656h-222.208c-3.072 0-5.12 2.048-5.12 5.12v0c0 3.072 2.048 5.12 5.12 5.12h224.256c3.072 0 5.12-2.048 5.12-5.12v0c-2.048-3.072-4.096-5.12-7.168-5.12zM367.616 180.224h-157.696c-3.072 0-5.12 2.048-5.12 5.12v0c0 3.072 2.048 5.12 5.12 5.12h158.72c3.072 0 5.12-2.048 5.12-5.12v0c-1.024-3.072-3.072-5.12-6.144-5.12zM465.92 399.36h-286.72c-17.408 0-30.72 13.312-30.72 30.72v286.72c0 17.408 13.312 30.72 30.72 30.72h286.72c17.408 0 30.72-13.312 30.72-30.72v-286.72c0-17.408-13.312-30.72-30.72-30.72zM179.2 727.040c-6.144 0-10.24-4.096-10.24-10.24v-286.72c0-6.144 4.096-10.24 10.24-10.24h286.72c6.144 0 10.24 4.096 10.24 10.24v286.72c0 6.144-4.096 10.24-10.24 10.24h-286.72zM844.8 399.36h-286.72c-17.408 0-30.72 13.312-30.72 30.72v286.72c0 17.408 13.312 30.72 30.72 30.72h286.72c17.408 0 30.72-13.312 30.72-30.72v-286.72c0-17.408-13.312-30.72-30.72-30.72zM558.080 727.040c-6.144 0-10.24-4.096-10.24-10.24v-286.72c0-6.144 4.096-10.24 10.24-10.24h286.72c6.144 0 10.24 4.096 10.24 10.24v286.72c0 6.144-4.096 10.24-10.24 10.24h-286.72zM396.288 608.256h-182.272c-5.12 0-9.216 4.096-9.216 9.216v0c0 5.12 4.096 9.216 9.216 9.216h182.272c5.12 0 9.216-4.096 9.216-9.216v0c0-5.12-3.072-9.216-9.216-9.216zM254.976 673.792h-45.056c-3.072 0-5.12 2.048-5.12 5.12v0c0 3.072 2.048 5.12 5.12 5.12h45.056c3.072 0 5.12-2.048 5.12-5.12v0c0-3.072-3.072-5.12-5.12-5.12zM360.448 673.792h-75.776c-3.072 0-5.12 2.048-5.12 5.12v0c0 3.072 2.048 5.12 5.12 5.12h75.776c3.072 0 5.12-2.048 5.12-5.12v0c0-3.072-2.048-5.12-5.12-5.12zM435.2 449.536h-75.776c-3.072 0-5.12 2.048-5.12 5.12v0c0 3.072 2.048 5.12 5.12 5.12h75.776c3.072 0 5.12-2.048 5.12-5.12v0c0-3.072-2.048-5.12-5.12-5.12zM285.696 449.536h-75.776c-3.072 0-5.12 2.048-5.12 5.12v0c0 3.072 2.048 5.12 5.12 5.12h75.776c3.072 0 5.12-2.048 5.12-5.12v0c0-3.072-3.072-5.12-5.12-5.12zM775.168 608.256h-182.272c-5.12 0-9.216 4.096-9.216 9.216v0c0 5.12 4.096 9.216 9.216 9.216h182.272c5.12 0 9.216-4.096 9.216-9.216v0c0-5.12-3.072-9.216-9.216-9.216zM633.856 673.792h-45.056c-3.072 0-5.12 2.048-5.12 5.12v0c0 3.072 2.048 5.12 5.12 5.12h45.056c3.072 0 5.12-2.048 5.12-5.12v0c0-3.072-3.072-5.12-5.12-5.12zM739.328 673.792h-75.776c-3.072 0-5.12 2.048-5.12 5.12v0c0 3.072 2.048 5.12 5.12 5.12h75.776c3.072 0 5.12-2.048 5.12-5.12v0c0-3.072-2.048-5.12-5.12-5.12zM814.080 449.536h-75.776c-3.072 0-5.12 2.048-5.12 5.12v0c0 3.072 2.048 5.12 5.12 5.12h75.776c3.072 0 5.12-2.048 5.12-5.12v0c0-3.072-2.048-5.12-5.12-5.12zM664.576 449.536h-75.776c-3.072 0-5.12 2.048-5.12 5.12v0c0 3.072 2.048 5.12 5.12 5.12h75.776c3.072 0 5.12-2.048 5.12-5.12v0c0-3.072-3.072-5.12-5.12-5.12zM465.92 20.48h-286.72c-17.408 0-30.72 13.312-30.72 30.72v286.72c0 17.408 13.312 30.72 30.72 30.72h286.72c17.408 0 30.72-13.312 30.72-30.72v-286.72c0-17.408-13.312-30.72-30.72-30.72zM179.2 348.16c-6.144 0-10.24-4.096-10.24-10.24v-286.72c0-6.144 4.096-10.24 10.24-10.24h286.72c6.144 0 10.24 4.096 10.24 10.24v286.72c0 6.144-4.096 10.24-10.24 10.24h-286.72zM844.8 20.48h-286.72c-17.408 0-30.72 13.312-30.72 30.72v286.72c0 17.408 13.312 30.72 30.72 30.72h286.72c17.408 0 30.72-13.312 30.72-30.72v-286.72c0-17.408-13.312-30.72-30.72-30.72zM558.080 348.16c-6.144 0-10.24-4.096-10.24-10.24v-286.72c0-6.144 4.096-10.24 10.24-10.24h286.72c6.144 0 10.24 4.096 10.24 10.24v286.72c0 6.144-4.096 10.24-10.24 10.24h-286.72zM396.288 229.376h-182.272c-5.12 0-9.216 4.096-9.216 9.216v0c0 5.12 4.096 9.216 9.216 9.216h182.272c5.12 0 9.216-4.096 9.216-9.216v0c0-5.12-3.072-9.216-9.216-9.216zM254.976 294.912h-45.056c-3.072 0-5.12 2.048-5.12 5.12v0c0 3.072 2.048 5.12 5.12 5.12h45.056c3.072 0 5.12-2.048 5.12-5.12v0c0-3.072-3.072-5.12-5.12-5.12zM360.448 294.912h-75.776c-3.072 0-5.12 2.048-5.12 5.12v0c0 3.072 2.048 5.12 5.12 5.12h75.776c3.072 0 5.12-2.048 5.12-5.12v0c0-3.072-2.048-5.12-5.12-5.12zM435.2 70.656h-75.776c-3.072 0-5.12 2.048-5.12 5.12v0c0 3.072 2.048 5.12 5.12 5.12h75.776c3.072 0 5.12-2.048 5.12-5.12v0c0-3.072-2.048-5.12-5.12-5.12zM285.696 70.656h-75.776c-3.072 0-5.12 2.048-5.12 5.12v0c0 3.072 2.048 5.12 5.12 5.12h75.776c3.072 0 5.12-2.048 5.12-5.12v0c0-3.072-3.072-5.12-5.12-5.12zM775.168 229.376h-182.272c-5.12 0-9.216 4.096-9.216 9.216v0c0 5.12 4.096 9.216 9.216 9.216h182.272c5.12 0 9.216-4.096 9.216-9.216v0c0-5.12-3.072-9.216-9.216-9.216zM633.856 294.912h-45.056c-3.072 0-5.12 2.048-5.12 5.12v0c0 3.072 2.048 5.12 5.12 5.12h45.056c3.072 0 5.12-2.048 5.12-5.12v0c0-3.072-3.072-5.12-5.12-5.12zM739.328 294.912h-75.776c-3.072 0-5.12 2.048-5.12 5.12v0c0 3.072 2.048 5.12 5.12 5.12h75.776c3.072 0 5.12-2.048 5.12-5.12v0c0-3.072-2.048-5.12-5.12-5.12zM814.080 70.656h-75.776c-3.072 0-5.12 2.048-5.12 5.12v0c0 3.072 2.048 5.12 5.12 5.12h75.776c3.072 0 5.12-2.048 5.12-5.12v0c0-3.072-2.048-5.12-5.12-5.12zM664.576 70.656h-75.776c-3.072 0-5.12 2.048-5.12 5.12v0c0 3.072 2.048 5.12 5.12 5.12h75.776c3.072 0 5.12-2.048 5.12-5.12v0c0-3.072-3.072-5.12-5.12-5.12z" />
<glyph unicode="&#xe954;" glyph-name="ramble-carousel" d="M432.128 388.096h-222.208c-3.072 0-5.12 2.048-5.12 5.12v0c0 3.072 2.048 5.12 5.12 5.12h224.256c3.072 0 5.12-2.048 5.12-5.12v0c-2.048-3.072-4.096-5.12-7.168-5.12zM367.616 369.664h-157.696c-3.072 0-5.12 2.048-5.12 5.12v0c0 3.072 2.048 5.12 5.12 5.12h158.72c3.072 0 5.12-2.048 5.12-5.12v0c-1.024-3.072-3.072-5.12-6.144-5.12zM465.92 209.92h-286.72c-17.408 0-30.72 13.312-30.72 30.72v286.72c0 17.408 13.312 30.72 30.72 30.72h286.72c17.408 0 30.72-13.312 30.72-30.72v-286.72c0-17.408-13.312-30.72-30.72-30.72zM179.2 537.6c-6.144 0-10.24-4.096-10.24-10.24v-286.72c0-6.144 4.096-10.24 10.24-10.24h286.72c6.144 0 10.24 4.096 10.24 10.24v286.72c0 6.144-4.096 10.24-10.24 10.24h-286.72zM844.8 209.92h-286.72c-17.408 0-30.72 13.312-30.72 30.72v286.72c0 17.408 13.312 30.72 30.72 30.72h286.72c17.408 0 30.72-13.312 30.72-30.72v-286.72c0-17.408-13.312-30.72-30.72-30.72zM558.080 537.6c-6.144 0-10.24-4.096-10.24-10.24v-286.72c0-6.144 4.096-10.24 10.24-10.24h286.72c6.144 0 10.24 4.096 10.24 10.24v286.72c0 6.144-4.096 10.24-10.24 10.24h-286.72zM396.288 418.816h-182.272c-5.12 0-9.216 4.096-9.216 9.216v0c0 5.12 4.096 9.216 9.216 9.216h182.272c5.12 0 9.216-4.096 9.216-9.216v0c0-5.12-3.072-9.216-9.216-9.216zM254.976 484.352h-45.056c-3.072 0-5.12 2.048-5.12 5.12v0c0 3.072 2.048 5.12 5.12 5.12h45.056c3.072 0 5.12-2.048 5.12-5.12v0c0-3.072-3.072-5.12-5.12-5.12zM360.448 484.352h-75.776c-3.072 0-5.12 2.048-5.12 5.12v0c0 3.072 2.048 5.12 5.12 5.12h75.776c3.072 0 5.12-2.048 5.12-5.12v0c0-3.072-2.048-5.12-5.12-5.12zM435.2 260.096h-75.776c-3.072 0-5.12 2.048-5.12 5.12v0c0 3.072 2.048 5.12 5.12 5.12h75.776c3.072 0 5.12-2.048 5.12-5.12v0c0-3.072-2.048-5.12-5.12-5.12zM285.696 260.096h-75.776c-3.072 0-5.12 2.048-5.12 5.12v0c0 3.072 2.048 5.12 5.12 5.12h75.776c3.072 0 5.12-2.048 5.12-5.12v0c0-3.072-3.072-5.12-5.12-5.12zM775.168 418.816h-182.272c-5.12 0-9.216 4.096-9.216 9.216v0c0 5.12 4.096 9.216 9.216 9.216h182.272c5.12 0 9.216-4.096 9.216-9.216v0c0-5.12-3.072-9.216-9.216-9.216zM633.856 484.352h-45.056c-3.072 0-5.12 2.048-5.12 5.12v0c0 3.072 2.048 5.12 5.12 5.12h45.056c3.072 0 5.12-2.048 5.12-5.12v0c0-3.072-3.072-5.12-5.12-5.12zM739.328 484.352h-75.776c-3.072 0-5.12 2.048-5.12 5.12v0c0 3.072 2.048 5.12 5.12 5.12h75.776c3.072 0 5.12-2.048 5.12-5.12v0c0-3.072-2.048-5.12-5.12-5.12zM814.080 260.096h-75.776c-3.072 0-5.12 2.048-5.12 5.12v0c0 3.072 2.048 5.12 5.12 5.12h75.776c3.072 0 5.12-2.048 5.12-5.12v0c0-3.072-2.048-5.12-5.12-5.12zM664.576 260.096h-75.776c-3.072 0-5.12 2.048-5.12 5.12v0c0 3.072 2.048 5.12 5.12 5.12h75.776c3.072 0 5.12-2.048 5.12-5.12v0c0-3.072-3.072-5.12-5.12-5.12zM965.632 337.92c-25.6 0-46.080 20.48-46.080 46.080s20.48 46.080 46.080 46.080 46.080-20.48 46.080-46.080-20.48-46.080-46.080-46.080zM965.632 419.84c-19.456 0-35.84-16.384-35.84-35.84s16.384-35.84 35.84-35.84 35.84 16.384 35.84 35.84-17.408 35.84-35.84 35.84zM58.368 337.92c-25.6 0-46.080 20.48-46.080 46.080s20.48 46.080 46.080 46.080 46.080-20.48 46.080-46.080-21.504-46.080-46.080-46.080zM58.368 419.84c-19.456 0-35.84-16.384-35.84-35.84s16.384-35.84 35.84-35.84 35.84 16.384 35.84 35.84-16.384 35.84-35.84 35.84zM62.464 367.616c-1.024 0-3.072 0-4.096 1.024l-8.192 9.216c-2.048 2.048-3.072 4.096-3.072 6.144s1.024 5.12 3.072 6.144l9.216 9.216c2.048 2.048 5.12 2.048 7.168 0s2.048-5.12 0-7.168l-8.192-8.192 8.192-8.192c2.048-2.048 2.048-5.12 0-7.168-1.024-1.024-2.048-1.024-4.096-1.024zM960.512 367.616c-1.024 0-3.072 0-4.096 1.024-2.048 2.048-2.048 5.12 0 7.168l8.192 8.192-8.192 8.192c-2.048 2.048-2.048 5.12 0 7.168s5.12 2.048 7.168 0l9.216-9.216c3.072-3.072 3.072-9.216 0-12.288l-10.24-9.216c0-1.024-2.048-1.024-2.048-1.024zM965.632 382.976v0 0z" />
<glyph unicode="&#xe955;" glyph-name="maple-carousel" d="M965.632 337.92c-25.6 0-46.080 20.48-46.080 46.080s20.48 46.080 46.080 46.080 46.080-20.48 46.080-46.080-20.48-46.080-46.080-46.080zM965.632 419.84c-19.456 0-35.84-16.384-35.84-35.84s16.384-35.84 35.84-35.84 35.84 16.384 35.84 35.84-16.384 35.84-35.84 35.84zM59.392 337.92c-25.6 0-46.080 20.48-46.080 46.080s20.48 46.080 46.080 46.080 46.080-20.48 46.080-46.080-21.504-46.080-46.080-46.080zM59.392 419.84c-19.456 0-35.84-16.384-35.84-35.84s16.384-35.84 35.84-35.84 35.84 16.384 35.84 35.84-16.384 35.84-35.84 35.84zM63.488 367.616c-1.024 0-3.072 0-4.096 1.024l-8.192 9.216c-2.048 2.048-3.072 4.096-3.072 6.144s1.024 5.12 3.072 6.144l9.216 9.216c2.048 2.048 5.12 2.048 7.168 0s2.048-5.12 0-7.168l-8.192-8.192 8.192-8.192c2.048-2.048 2.048-5.12 0-7.168-1.024-1.024-2.048-1.024-4.096-1.024zM960.512 367.616c-1.024 0-3.072 0-4.096 1.024-2.048 2.048-2.048 5.12 0 7.168l8.192 8.192-8.192 8.192c-2.048 2.048-2.048 5.12 0 7.168s5.12 2.048 7.168 0l9.216-9.216c3.072-3.072 3.072-9.216 0-12.288l-9.216-9.216c0-1.024-2.048-1.024-3.072-1.024zM965.632 382.976v0 0zM456.704 634.88h-284.672c-15.36 0-27.648-12.288-27.648-27.648v-189.44c0-15.36 12.288-27.648 27.648-27.648h284.672c15.36 0 27.648 12.288 27.648 27.648v189.44c0 15.36-12.288 27.648-27.648 27.648zM313.344 593.92c17.408 0 31.744-14.336 31.744-31.744s-14.336-31.744-31.744-31.744-31.744 14.336-31.744 31.744c1.024 17.408 15.36 31.744 31.744 31.744zM465.92 416.768c0-5.12-4.096-9.216-9.216-9.216h-284.672c-5.12 0-9.216 4.096-9.216 9.216v34.816c0 5.12 2.048 8.192 5.12 10.24l56.32 44.032c8.192 6.144 19.456 6.144 27.648 1.024l36.864-24.576c14.336-9.216 32.768-9.216 47.104 0l45.056 30.72c10.24 6.144 23.552 5.12 31.744-4.096l48.128-52.224c3.072-3.072 4.096-5.12 4.096-9.216 1.024 0 1.024-30.72 1.024-30.72zM850.944 634.88h-284.672c-15.36 0-27.648-12.288-27.648-27.648v-189.44c0-15.36 12.288-27.648 27.648-27.648h285.696c15.36 0 27.648 12.288 27.648 27.648v189.44c-1.024 15.36-13.312 27.648-28.672 27.648zM709.632 593.92c17.408 0 31.744-14.336 31.744-31.744s-14.336-31.744-31.744-31.744-31.744 14.336-31.744 31.744c0 17.408 13.312 31.744 31.744 31.744zM860.16 416.768c0-5.12-4.096-9.216-9.216-9.216h-284.672c-5.12 0-9.216 4.096-9.216 9.216v34.816c0 5.12 2.048 8.192 5.12 10.24l57.344 44.032c8.192 6.144 19.456 6.144 27.648 1.024l36.864-24.576c14.336-9.216 32.768-9.216 47.104 0l45.056 30.72c10.24 6.144 23.552 5.12 31.744-4.096l48.128-52.224c3.072-3.072 4.096-5.12 4.096-9.216v-30.72zM335.872 184.32h-182.272c-5.12 0-9.216 4.096-9.216 9.216v0c0 5.12 4.096 9.216 9.216 9.216h182.272c5.12 0 9.216-4.096 9.216-9.216v0c0-5.12-3.072-9.216-9.216-9.216zM433.152 151.552h-284.672c-3.072 0-5.12 2.048-5.12 5.12v0c0 3.072 2.048 5.12 5.12 5.12h285.696c3.072 0 5.12-2.048 5.12-5.12v0c-1.024-3.072-3.072-5.12-6.144-5.12zM368.64 133.12h-220.16c-3.072 0-5.12 2.048-5.12 5.12v0c0 3.072 2.048 5.12 5.12 5.12h220.16c3.072 0 5.12-2.048 5.12-5.12v0c-1.024-3.072-3.072-5.12-5.12-5.12zM730.112 184.32h-182.272c-5.12 0-9.216 4.096-9.216 9.216v0c0 5.12 4.096 9.216 9.216 9.216h183.296c5.12 0 9.216-4.096 9.216-9.216v0c0-5.12-4.096-9.216-10.24-9.216zM827.392 151.552h-283.648c-3.072 0-5.12 2.048-5.12 5.12v0c0 3.072 2.048 5.12 5.12 5.12h285.696c3.072 0 5.12-2.048 5.12-5.12v0c-2.048-3.072-4.096-5.12-7.168-5.12zM762.88 133.12h-219.136c-3.072 0-5.12 2.048-5.12 5.12v0c0 3.072 2.048 5.12 5.12 5.12h220.16c3.072 0 5.12-2.048 5.12-5.12v0c-1.024-3.072-3.072-5.12-6.144-5.12zM239.616 233.472h-90.112c-3.072 0-5.12 2.048-5.12 5.12v0c0 3.072 2.048 5.12 5.12 5.12h90.112c3.072 0 5.12-2.048 5.12-5.12v0c0-3.072-2.048-5.12-5.12-5.12zM633.856 233.472h-90.112c-3.072 0-5.12 2.048-5.12 5.12v0c0 3.072 2.048 5.12 5.12 5.12h90.112c3.072 0 5.12-2.048 5.12-5.12v0c0-3.072-2.048-5.12-5.12-5.12zM186.368 274.432c-23.552 0-41.984 19.456-41.984 41.984 0 23.552 19.456 43.008 41.984 43.008s41.984-19.456 41.984-43.008-18.432-41.984-41.984-41.984zM186.368 354.304c-20.48 0-36.864-16.384-36.864-37.888s16.384-36.864 36.864-36.864 36.864 16.384 36.864 36.864-16.384 37.888-36.864 37.888zM186.368 311.296c-8.192 0-14.336 7.168-14.336 15.36s7.168 15.36 14.336 15.36c8.192 0 15.36-7.168 15.36-15.36s-7.168-15.36-15.36-15.36zM186.368 335.872c-5.12 0-9.216-4.096-9.216-10.24s4.096-10.24 9.216-10.24 10.24 4.096 10.24 10.24-5.12 10.24-10.24 10.24zM156.672 290.816l-5.12 2.048c6.144 14.336 19.456 24.576 33.792 24.576 15.36 0 29.696-10.24 33.792-24.576l-5.12-1.024c-4.096 12.288-16.384 20.48-29.696 20.48-11.264-1.024-22.528-9.216-27.648-21.504zM296.96 311.296h-48.128c-2.048 0-4.096 2.048-4.096 4.096v0c0 2.048 2.048 4.096 4.096 4.096h48.128c2.048 0 4.096-2.048 4.096-4.096v0c0-2.048-2.048-4.096-4.096-4.096zM395.264 311.296h-63.488c-2.048 0-4.096 2.048-4.096 4.096v0c0 2.048 2.048 4.096 4.096 4.096h63.488c2.048 0 4.096-2.048 4.096-4.096v0c-1.024-2.048-2.048-4.096-4.096-4.096zM580.608 274.432c-23.552 0-41.984 19.456-41.984 41.984 0 23.552 19.456 43.008 41.984 43.008s41.984-19.456 41.984-43.008-18.432-41.984-41.984-41.984zM580.608 354.304c-20.48 0-36.864-16.384-36.864-37.888s16.384-36.864 36.864-36.864 36.864 16.384 36.864 36.864-16.384 37.888-36.864 37.888zM580.608 311.296c-8.192 0-14.336 7.168-14.336 15.36s7.168 15.36 14.336 15.36c8.192 0 15.36-7.168 15.36-15.36s-7.168-15.36-15.36-15.36zM580.608 335.872c-5.12 0-9.216-4.096-9.216-10.24s4.096-10.24 9.216-10.24 10.24 4.096 10.24 10.24-5.12 10.24-10.24 10.24zM550.912 290.816l-5.12 2.048c6.144 14.336 19.456 24.576 33.792 24.576 15.36 0 29.696-10.24 33.792-24.576l-5.12-1.024c-4.096 12.288-16.384 20.48-29.696 20.48-11.264-1.024-22.528-9.216-27.648-21.504zM691.2 311.296h-48.128c-2.048 0-4.096 2.048-4.096 4.096v0c0 2.048 2.048 4.096 4.096 4.096h48.128c2.048 0 4.096-2.048 4.096-4.096v0c0-2.048-2.048-4.096-4.096-4.096zM789.504 311.296h-63.488c-2.048 0-4.096 2.048-4.096 4.096v0c0 2.048 2.048 4.096 4.096 4.096h63.488c2.048 0 4.096-2.048 4.096-4.096v0c-1.024-2.048-2.048-4.096-4.096-4.096z" />
<glyph unicode="&#xe956;" glyph-name="elite-carousel" d="M965.632 337.92c-25.6 0-46.080 20.48-46.080 46.080s20.48 46.080 46.080 46.080 46.080-20.48 46.080-46.080-20.48-46.080-46.080-46.080zM965.632 419.84c-19.456 0-35.84-16.384-35.84-35.84s16.384-35.84 35.84-35.84 35.84 16.384 35.84 35.84-16.384 35.84-35.84 35.84zM59.392 337.92c-25.6 0-46.080 20.48-46.080 46.080s20.48 46.080 46.080 46.080 46.080-20.48 46.080-46.080-21.504-46.080-46.080-46.080zM59.392 419.84c-19.456 0-35.84-16.384-35.84-35.84s16.384-35.84 35.84-35.84 35.84 16.384 35.84 35.84-16.384 35.84-35.84 35.84zM63.488 367.616c-1.024 0-3.072 0-4.096 1.024l-8.192 9.216c-2.048 2.048-3.072 4.096-3.072 6.144s1.024 5.12 3.072 6.144l9.216 9.216c2.048 2.048 5.12 2.048 7.168 0s2.048-5.12 0-7.168l-8.192-8.192 8.192-8.192c2.048-2.048 2.048-5.12 0-7.168-1.024-1.024-2.048-1.024-4.096-1.024zM960.512 367.616c-1.024 0-3.072 0-4.096 1.024-2.048 2.048-2.048 5.12 0 7.168l8.192 8.192-8.192 8.192c-2.048 2.048-2.048 5.12 0 7.168s5.12 2.048 7.168 0l9.216-9.216c3.072-3.072 3.072-9.216 0-12.288l-9.216-9.216c0-1.024-2.048-1.024-3.072-1.024zM965.632 382.976v0 0zM473.088 513.024h-319.488c-5.12 0-9.216-4.096-9.216-9.216v-107.52c0-5.12 4.096-9.216 9.216-9.216h119.808c2.048 0 5.12-2.048 5.12-5.12v-49.152c0-8.192 6.144-14.336 14.336-14.336h176.128c3.072 0 6.144 1.024 9.216 3.072 3.072 1.024 6.144 5.12 6.144 9.216v173.056c-1.024 5.12-5.12 9.216-11.264 9.216zM313.344 488.448c14.336 0 25.6-11.264 25.6-25.6s-11.264-25.6-25.6-25.6-25.6 11.264-25.6 25.6c1.024 14.336 12.288 25.6 25.6 25.6zM223.232 441.344c3.072 3.072 8.192 4.096 12.288 4.096s9.216-1.024 12.288-4.096l48.128-39.936c5.12-4.096 11.264-6.144 17.408-6.144 7.168 0 13.312 2.048 18.432 6.144l62.464 50.176c3.072 3.072 8.192 4.096 12.288 4.096 6.144 0 11.264-2.048 14.336-7.168l47.104-55.296c4.096-5.12 6.144-10.24 6.144-17.408v-45.056c0-2.048-2.048-5.12-5.12-5.12h-176.128c-2.048 0-5.12 2.048-5.12 5.12v49.152c0 7.168-4.096 12.288-10.24 13.312v0c-1.024 0-2.048 0-4.096 0h-106.496l56.32 48.128zM869.376 513.024h-320.512c-5.12 0-9.216-4.096-9.216-9.216v-108.544c0-5.12 4.096-9.216 9.216-9.216h120.832c2.048 0 5.12-2.048 5.12-5.12v-49.152c0-8.192 6.144-14.336 14.336-14.336h177.152c3.072 0 6.144 1.024 9.216 3.072 3.072 1.024 6.144 5.12 6.144 9.216v174.080c-3.072 5.12-7.168 9.216-12.288 9.216zM708.608 488.448c14.336 0 25.6-11.264 25.6-25.6s-11.264-25.6-25.6-25.6c-14.336 0-25.6 11.264-25.6 25.6s11.264 25.6 25.6 25.6zM618.496 441.344c3.072 3.072 8.192 4.096 12.288 4.096s9.216-1.024 12.288-4.096l48.128-39.936c5.12-4.096 11.264-6.144 18.432-6.144s13.312 2.048 18.432 6.144l62.464 50.176c3.072 3.072 8.192 4.096 12.288 4.096 6.144 0 11.264-2.048 14.336-7.168l47.104-56.32c4.096-5.12 6.144-10.24 6.144-17.408v-45.056c0-2.048-2.048-5.12-5.12-5.12h-177.152c-2.048 0-5.12 2.048-5.12 5.12v49.152c0 7.168-4.096 12.288-10.24 13.312v0c-1.024 0-2.048 0-4.096 0h-106.496l56.32 49.152zM164.864 326.656c-11.264 0-20.48 9.216-20.48 20.48s9.216 20.48 20.48 20.48 20.48-9.216 20.48-20.48-9.216-20.48-20.48-20.48zM164.864 365.568c-10.24 0-18.432-8.192-18.432-18.432s8.192-18.432 18.432-18.432 18.432 8.192 18.432 18.432-8.192 18.432-18.432 18.432zM164.864 345.088c-4.096 0-7.168 3.072-7.168 7.168s3.072 7.168 7.168 7.168c4.096 0 7.168-3.072 7.168-7.168s-3.072-7.168-7.168-7.168zM164.864 357.376c-2.048 0-4.096-2.048-4.096-5.12s2.048-5.12 4.096-5.12c2.048 0 5.12 2.048 5.12 5.12s-3.072 5.12-5.12 5.12zM150.528 334.848l-2.048 1.024c3.072 7.168 9.216 12.288 16.384 12.288s14.336-5.12 16.384-12.288h-2.048c-2.048 6.144-8.192 10.24-14.336 10.24-7.168-1.024-12.288-5.12-14.336-11.264zM218.112 345.088h-23.552c-1.024 0-2.048 1.024-2.048 2.048v0c0 1.024 1.024 2.048 2.048 2.048h23.552c1.024 0 2.048-1.024 2.048-2.048v0c0-1.024-1.024-2.048-2.048-2.048zM266.24 345.088h-30.72c-1.024 0-2.048 1.024-2.048 2.048v0c0 1.024 1.024 2.048 2.048 2.048h30.72c1.024 0 2.048-1.024 2.048-2.048v0c0-1.024-1.024-2.048-2.048-2.048zM559.104 326.656c-11.264 0-20.48 9.216-20.48 20.48s9.216 20.48 20.48 20.48c11.264 0 20.48-9.216 20.48-20.48s-9.216-20.48-20.48-20.48zM559.104 365.568c-10.24 0-18.432-8.192-18.432-18.432s8.192-18.432 18.432-18.432 18.432 8.192 18.432 18.432-8.192 18.432-18.432 18.432zM559.104 345.088c-4.096 0-7.168 3.072-7.168 7.168s3.072 7.168 7.168 7.168c4.096 0 7.168-3.072 7.168-7.168s-3.072-7.168-7.168-7.168zM559.104 357.376c-2.048 0-4.096-2.048-4.096-5.12s2.048-5.12 4.096-5.12 5.12 2.048 5.12 5.12c0 3.072-2.048 5.12-5.12 5.12zM544.768 334.848l-2.048 1.024c3.072 7.168 9.216 12.288 16.384 12.288s14.336-5.12 16.384-12.288h-2.048c-2.048 6.144-8.192 10.24-14.336 10.24-6.144-1.024-11.264-5.12-14.336-11.264zM613.376 345.088h-23.552c-1.024 0-2.048 1.024-2.048 2.048v0c0 1.024 1.024 2.048 2.048 2.048h23.552c1.024 0 2.048-1.024 2.048-2.048v0c0-1.024-1.024-2.048-2.048-2.048zM660.48 345.088h-30.72c-1.024 0-2.048 1.024-2.048 2.048v0c0 1.024 1.024 2.048 2.048 2.048h30.72c1.024 0 2.048-1.024 2.048-2.048v0c0-1.024-1.024-2.048-2.048-2.048zM351.232 254.976h-137.216c-3.072 0-6.144 3.072-6.144 7.168v0c0 4.096 3.072 7.168 6.144 7.168h136.192c3.072 0 6.144-3.072 6.144-7.168v0c1.024-3.072-1.024-7.168-5.12-7.168zM427.008 231.424h-212.992c-3.072 0-6.144 3.072-6.144 7.168v0c0 4.096 3.072 7.168 6.144 7.168h212.992c3.072 0 6.144-3.072 6.144-7.168v0c0-4.096-3.072-7.168-6.144-7.168zM480.256 201.728h-268.288c-2.048 0-4.096 2.048-4.096 5.12v0c0 3.072 1.024 5.12 4.096 5.12h267.264c2.048 0 4.096-2.048 4.096-5.12v0c0-3.072-2.048-5.12-3.072-5.12zM391.168 182.272h-179.2c-2.048 0-4.096 2.048-4.096 5.12v0c0 3.072 1.024 5.12 4.096 5.12h178.176c2.048 0 4.096-2.048 4.096-5.12v0c1.024-3.072 0-5.12-3.072-5.12zM180.224 265.216h-32.768c-1.024 0-2.048 1.024-2.048 2.048v0c0 1.024 1.024 2.048 2.048 2.048h32.768c1.024 0 2.048-1.024 2.048-2.048v0c0-1.024-1.024-2.048-2.048-2.048zM746.496 254.976h-137.216c-3.072 0-6.144 3.072-6.144 7.168v0c0 4.096 3.072 7.168 6.144 7.168h136.192c3.072 0 6.144-3.072 6.144-7.168v0c1.024-3.072-2.048-7.168-5.12-7.168zM821.248 231.424h-211.968c-3.072 0-6.144 3.072-6.144 7.168v0c0 4.096 3.072 7.168 6.144 7.168h212.992c3.072 0 6.144-3.072 6.144-7.168v0c-1.024-4.096-3.072-7.168-7.168-7.168zM874.496 201.728h-267.264c-2.048 0-4.096 2.048-4.096 5.12v0c0 3.072 1.024 5.12 4.096 5.12h267.264c2.048 0 4.096-2.048 4.096-5.12v0c0-3.072-2.048-5.12-4.096-5.12zM785.408 182.272h-178.176c-2.048 0-4.096 2.048-4.096 5.12v0c0 3.072 1.024 5.12 4.096 5.12h178.176c2.048 0 4.096-2.048 4.096-5.12v0c0-3.072-1.024-5.12-4.096-5.12zM574.464 265.216h-32.768c-1.024 0-2.048 1.024-2.048 2.048v0c0 1.024 1.024 2.048 2.048 2.048h32.768c1.024 0 2.048-1.024 2.048-2.048v0c0-1.024-1.024-2.048-2.048-2.048z" />
<glyph unicode="&#xe957;" glyph-name="alter-carousel" d="M965.632 337.92c-25.6 0-46.080 20.48-46.080 46.080s20.48 46.080 46.080 46.080 46.080-20.48 46.080-46.080-20.48-46.080-46.080-46.080zM965.632 419.84c-19.456 0-35.84-16.384-35.84-35.84s16.384-35.84 35.84-35.84 35.84 16.384 35.84 35.84-16.384 35.84-35.84 35.84zM59.392 337.92c-25.6 0-46.080 20.48-46.080 46.080s20.48 46.080 46.080 46.080 46.080-20.48 46.080-46.080-21.504-46.080-46.080-46.080zM59.392 419.84c-19.456 0-35.84-16.384-35.84-35.84s16.384-35.84 35.84-35.84 35.84 16.384 35.84 35.84-16.384 35.84-35.84 35.84zM63.488 367.616c-1.024 0-3.072 0-4.096 1.024l-8.192 9.216c-2.048 2.048-3.072 4.096-3.072 6.144s1.024 5.12 3.072 6.144l9.216 9.216c2.048 2.048 5.12 2.048 7.168 0s2.048-5.12 0-7.168l-8.192-8.192 8.192-8.192c2.048-2.048 2.048-5.12 0-7.168-1.024-1.024-2.048-1.024-4.096-1.024zM960.512 367.616c-1.024 0-3.072 0-4.096 1.024-2.048 2.048-2.048 5.12 0 7.168l8.192 8.192-8.192 8.192c-2.048 2.048-2.048 5.12 0 7.168s5.12 2.048 7.168 0l9.216-9.216c3.072-3.072 3.072-9.216 0-12.288l-9.216-9.216c0-1.024-2.048-1.024-3.072-1.024zM965.632 382.976v0 0zM456.704 598.016h-284.672c-15.36 0-27.648-12.288-27.648-27.648v-189.44c0-15.36 12.288-27.648 27.648-27.648h284.672c15.36 0 27.648 12.288 27.648 27.648v189.44c0 15.36-12.288 27.648-27.648 27.648zM313.344 557.056c17.408 0 31.744-14.336 31.744-31.744s-14.336-31.744-31.744-31.744-31.744 14.336-31.744 31.744c1.024 17.408 15.36 31.744 31.744 31.744zM465.92 379.904c0-5.12-4.096-9.216-9.216-9.216h-284.672c-5.12 0-9.216 4.096-9.216 9.216v34.816c0 5.12 2.048 8.192 5.12 10.24l56.32 44.032c8.192 6.144 19.456 6.144 27.648 1.024l36.864-24.576c14.336-9.216 32.768-9.216 47.104 0l45.056 30.72c10.24 6.144 23.552 5.12 31.744-4.096l48.128-52.224c3.072-3.072 4.096-5.12 4.096-9.216 1.024 0 1.024-30.72 1.024-30.72zM850.944 598.016h-284.672c-15.36 0-27.648-12.288-27.648-27.648v-189.44c0-15.36 12.288-27.648 27.648-27.648h285.696c15.36 0 27.648 12.288 27.648 27.648v189.44c-1.024 15.36-13.312 27.648-28.672 27.648zM709.632 557.056c17.408 0 31.744-14.336 31.744-31.744s-14.336-31.744-31.744-31.744-31.744 14.336-31.744 31.744c0 17.408 13.312 31.744 31.744 31.744zM860.16 379.904c0-5.12-4.096-9.216-9.216-9.216h-284.672c-5.12 0-9.216 4.096-9.216 9.216v34.816c0 5.12 2.048 8.192 5.12 10.24l57.344 44.032c8.192 6.144 19.456 6.144 27.648 1.024l36.864-24.576c14.336-9.216 32.768-9.216 47.104 0l45.056 30.72c10.24 6.144 23.552 5.12 31.744-4.096l48.128-52.224c3.072-3.072 4.096-5.12 4.096-9.216v-30.72zM335.872 262.144h-182.272c-5.12 0-9.216 4.096-9.216 9.216v0c0 5.12 4.096 9.216 9.216 9.216h182.272c5.12 0 9.216-4.096 9.216-9.216v0c0-5.12-3.072-9.216-9.216-9.216zM433.152 229.376h-284.672c-3.072 0-5.12 2.048-5.12 5.12v0c0 3.072 2.048 5.12 5.12 5.12h285.696c3.072 0 5.12-2.048 5.12-5.12v0c-1.024-3.072-3.072-5.12-6.144-5.12zM368.64 210.944h-220.16c-3.072 0-5.12 2.048-5.12 5.12v0c0 3.072 2.048 5.12 5.12 5.12h220.16c3.072 0 5.12-2.048 5.12-5.12v0c-1.024-3.072-3.072-5.12-5.12-5.12zM730.112 262.144h-182.272c-5.12 0-9.216 4.096-9.216 9.216v0c0 5.12 4.096 9.216 9.216 9.216h183.296c5.12 0 9.216-4.096 9.216-9.216v0c0-5.12-4.096-9.216-10.24-9.216zM827.392 229.376h-283.648c-3.072 0-5.12 2.048-5.12 5.12v0c0 3.072 2.048 5.12 5.12 5.12h285.696c3.072 0 5.12-2.048 5.12-5.12v0c-2.048-3.072-4.096-5.12-7.168-5.12zM762.88 210.944h-219.136c-3.072 0-5.12 2.048-5.12 5.12v0c0 3.072 2.048 5.12 5.12 5.12h220.16c3.072 0 5.12-2.048 5.12-5.12v0c-1.024-3.072-3.072-5.12-6.144-5.12zM239.616 311.296h-90.112c-3.072 0-5.12 2.048-5.12 5.12v0c0 3.072 2.048 5.12 5.12 5.12h90.112c3.072 0 5.12-2.048 5.12-5.12v0c0-3.072-2.048-5.12-5.12-5.12zM198.656 169.984h-49.152c-3.072 0-5.12 2.048-5.12 5.12v0c0 3.072 2.048 5.12 5.12 5.12h49.152c3.072 0 5.12-2.048 5.12-5.12v0c0-3.072-2.048-5.12-5.12-5.12zM309.248 169.984h-79.872c-3.072 0-5.12 2.048-5.12 5.12v0c0 3.072 2.048 5.12 5.12 5.12h79.872c3.072 0 5.12-2.048 5.12-5.12v0c0-3.072-2.048-5.12-5.12-5.12zM633.856 311.296h-90.112c-3.072 0-5.12 2.048-5.12 5.12v0c0 3.072 2.048 5.12 5.12 5.12h90.112c3.072 0 5.12-2.048 5.12-5.12v0c0-3.072-2.048-5.12-5.12-5.12zM592.896 169.984h-49.152c-3.072 0-5.12 2.048-5.12 5.12v0c0 3.072 2.048 5.12 5.12 5.12h49.152c3.072 0 5.12-2.048 5.12-5.12v0c0-3.072-2.048-5.12-5.12-5.12zM704.512 169.984h-79.872c-3.072 0-5.12 2.048-5.12 5.12v0c0 3.072 2.048 5.12 5.12 5.12h79.872c3.072 0 5.12-2.048 5.12-5.12v0c0-3.072-3.072-5.12-5.12-5.12z" />
<glyph unicode="&#xe958;" glyph-name="alice-carousel" d="M416.768 321.536h-206.848c-3.072 0-5.12 2.048-5.12 5.12v0c0 3.072 2.048 5.12 5.12 5.12h205.824c3.072 0 5.12-2.048 5.12-5.12v0c1.024-3.072-2.048-5.12-4.096-5.12zM304.128 296.96h-53.248c-3.072 0-5.12 2.048-5.12 5.12v0c0 3.072 2.048 5.12 5.12 5.12h53.248c3.072 0 5.12-2.048 5.12-5.12v0c0-3.072-2.048-5.12-5.12-5.12zM377.856 296.96h-53.248c-3.072 0-5.12 2.048-5.12 5.12v0c0 3.072 2.048 5.12 5.12 5.12h53.248c3.072 0 5.12-2.048 5.12-5.12v0c0-3.072-2.048-5.12-5.12-5.12zM812.032 321.536h-206.848c-3.072 0-5.12 2.048-5.12 5.12v0c0 3.072 2.048 5.12 5.12 5.12h205.824c3.072 0 5.12-2.048 5.12-5.12v0c1.024-3.072-2.048-5.12-4.096-5.12zM699.392 296.96h-53.248c-3.072 0-5.12 2.048-5.12 5.12v0c0 3.072 2.048 5.12 5.12 5.12h53.248c3.072 0 5.12-2.048 5.12-5.12v0c0-3.072-2.048-5.12-5.12-5.12zM773.12 296.96h-53.248c-3.072 0-5.12 2.048-5.12 5.12v0c0 3.072 2.048 5.12 5.12 5.12h53.248c3.072 0 5.12-2.048 5.12-5.12v0c0-3.072-2.048-5.12-5.12-5.12zM456.704 506.88h-284.672c-15.36 0-27.648-12.288-27.648-27.648v-189.44c0-15.36 12.288-27.648 27.648-27.648h284.672c15.36 0 27.648 12.288 27.648 27.648v189.44c0 15.36-12.288 27.648-27.648 27.648zM313.344 465.92c17.408 0 31.744-14.336 31.744-31.744s-14.336-31.744-31.744-31.744-31.744 14.336-31.744 31.744c1.024 17.408 15.36 31.744 31.744 31.744zM465.92 288.768c0-5.12-4.096-9.216-9.216-9.216h-284.672c-5.12 0-9.216 4.096-9.216 9.216v34.816c0 5.12 2.048 8.192 5.12 10.24l56.32 44.032c8.192 6.144 19.456 6.144 27.648 1.024l36.864-24.576c14.336-9.216 32.768-9.216 47.104 0l45.056 30.72c10.24 6.144 23.552 5.12 31.744-4.096l48.128-52.224c3.072-3.072 4.096-5.12 4.096-9.216 1.024 0 1.024-30.72 1.024-30.72zM850.944 506.88h-284.672c-15.36 0-27.648-12.288-27.648-27.648v-189.44c0-15.36 12.288-27.648 27.648-27.648h285.696c15.36 0 27.648 12.288 27.648 27.648v189.44c-1.024 15.36-13.312 27.648-28.672 27.648zM709.632 465.92c17.408 0 31.744-14.336 31.744-31.744s-14.336-31.744-31.744-31.744-31.744 14.336-31.744 31.744c0 17.408 13.312 31.744 31.744 31.744zM860.16 288.768c0-5.12-4.096-9.216-9.216-9.216h-284.672c-5.12 0-9.216 4.096-9.216 9.216v34.816c0 5.12 2.048 8.192 5.12 10.24l57.344 44.032c8.192 6.144 19.456 6.144 27.648 1.024l36.864-24.576c14.336-9.216 32.768-9.216 47.104 0l45.056 30.72c10.24 6.144 23.552 5.12 31.744-4.096l48.128-52.224c3.072-3.072 4.096-5.12 4.096-9.216v-30.72zM965.632 337.92c-25.6 0-46.080 20.48-46.080 46.080s20.48 46.080 46.080 46.080 46.080-20.48 46.080-46.080-20.48-46.080-46.080-46.080zM965.632 419.84c-19.456 0-35.84-16.384-35.84-35.84s16.384-35.84 35.84-35.84 35.84 16.384 35.84 35.84-17.408 35.84-35.84 35.84zM58.368 337.92c-25.6 0-46.080 20.48-46.080 46.080s20.48 46.080 46.080 46.080 46.080-20.48 46.080-46.080-21.504-46.080-46.080-46.080zM58.368 419.84c-19.456 0-35.84-16.384-35.84-35.84s16.384-35.84 35.84-35.84 35.84 16.384 35.84 35.84-16.384 35.84-35.84 35.84zM62.464 367.616c-1.024 0-3.072 0-4.096 1.024l-8.192 9.216c-2.048 2.048-3.072 4.096-3.072 6.144s1.024 5.12 3.072 6.144l9.216 9.216c2.048 2.048 5.12 2.048 7.168 0s2.048-5.12 0-7.168l-8.192-8.192 8.192-8.192c2.048-2.048 2.048-5.12 0-7.168-1.024-1.024-2.048-1.024-4.096-1.024zM960.512 367.616c-1.024 0-3.072 0-4.096 1.024-2.048 2.048-2.048 5.12 0 7.168l8.192 8.192-8.192 8.192c-2.048 2.048-2.048 5.12 0 7.168s5.12 2.048 7.168 0l9.216-9.216c3.072-3.072 3.072-9.216 0-12.288l-10.24-9.216c0-1.024-2.048-1.024-2.048-1.024zM965.632 382.976v0 0z" />
<glyph unicode="&#xe959;" glyph-name="alice-grid" d="M416.768 470.016h-206.848c-3.072 0-5.12 2.048-5.12 5.12v0c0 3.072 2.048 5.12 5.12 5.12h205.824c3.072 0 5.12-2.048 5.12-5.12v0c1.024-3.072-2.048-5.12-4.096-5.12zM304.128 444.416h-53.248c-3.072 0-5.12 2.048-5.12 5.12v0c0 3.072 2.048 5.12 5.12 5.12h53.248c3.072 0 5.12-2.048 5.12-5.12v0c0-2.048-2.048-5.12-5.12-5.12zM377.856 444.416h-53.248c-3.072 0-5.12 2.048-5.12 5.12v0c0 3.072 2.048 5.12 5.12 5.12h53.248c3.072 0 5.12-2.048 5.12-5.12v0c0-2.048-2.048-5.12-5.12-5.12zM416.768 173.056h-206.848c-3.072 0-5.12 2.048-5.12 5.12v0c0 3.072 2.048 5.12 5.12 5.12h205.824c3.072 0 5.12-2.048 5.12-5.12v0c1.024-3.072-2.048-5.12-4.096-5.12zM304.128 148.48h-53.248c-3.072 0-5.12 2.048-5.12 5.12v0c0 3.072 2.048 5.12 5.12 5.12h53.248c3.072 0 5.12-2.048 5.12-5.12v0c0-3.072-2.048-5.12-5.12-5.12zM377.856 148.48h-53.248c-3.072 0-5.12 2.048-5.12 5.12v0c0 3.072 2.048 5.12 5.12 5.12h53.248c3.072 0 5.12-2.048 5.12-5.12v0c0-3.072-2.048-5.12-5.12-5.12zM812.032 470.016h-206.848c-3.072 0-5.12 2.048-5.12 5.12v0c0 3.072 2.048 5.12 5.12 5.12h205.824c3.072 0 5.12-2.048 5.12-5.12v0c1.024-3.072-2.048-5.12-4.096-5.12zM699.392 444.416h-53.248c-3.072 0-5.12 2.048-5.12 5.12v0c0 3.072 2.048 5.12 5.12 5.12h53.248c3.072 0 5.12-2.048 5.12-5.12v0c0-2.048-2.048-5.12-5.12-5.12zM773.12 444.416h-53.248c-3.072 0-5.12 2.048-5.12 5.12v0c0 3.072 2.048 5.12 5.12 5.12h53.248c3.072 0 5.12-2.048 5.12-5.12v0c0-2.048-2.048-5.12-5.12-5.12zM812.032 173.056h-206.848c-3.072 0-5.12 2.048-5.12 5.12v0c0 3.072 2.048 5.12 5.12 5.12h205.824c3.072 0 5.12-2.048 5.12-5.12v0c1.024-3.072-2.048-5.12-4.096-5.12zM699.392 148.48h-53.248c-3.072 0-5.12 2.048-5.12 5.12v0c0 3.072 2.048 5.12 5.12 5.12h53.248c3.072 0 5.12-2.048 5.12-5.12v0c0-3.072-2.048-5.12-5.12-5.12zM773.12 148.48h-53.248c-3.072 0-5.12 2.048-5.12 5.12v0c0 3.072 2.048 5.12 5.12 5.12h53.248c3.072 0 5.12-2.048 5.12-5.12v0c0-3.072-2.048-5.12-5.12-5.12zM456.704 654.336h-284.672c-15.36 0-27.648-12.288-27.648-27.648v-189.44c0-15.36 12.288-27.648 27.648-27.648h284.672c15.36 0 27.648 12.288 27.648 27.648v189.44c0 15.36-12.288 27.648-27.648 27.648zM313.344 613.376c17.408 0 31.744-14.336 31.744-31.744s-14.336-31.744-31.744-31.744-31.744 14.336-31.744 31.744c1.024 17.408 15.36 31.744 31.744 31.744zM465.92 436.224c0-5.12-4.096-9.216-9.216-9.216h-284.672c-5.12 0-9.216 4.096-9.216 9.216v34.816c0 5.12 2.048 8.192 5.12 10.24l56.32 44.032c8.192 6.144 19.456 6.144 27.648 1.024l36.864-24.576c14.336-9.216 32.768-9.216 47.104 0l45.056 30.72c10.24 6.144 23.552 5.12 31.744-4.096l48.128-52.224c3.072-3.072 4.096-5.12 4.096-9.216 1.024 0 1.024-30.72 1.024-30.72zM850.944 654.336h-284.672c-15.36 0-27.648-12.288-27.648-27.648v-189.44c0-15.36 12.288-27.648 27.648-27.648h285.696c15.36 0 27.648 12.288 27.648 27.648v189.44c-1.024 15.36-13.312 27.648-28.672 27.648zM709.632 613.376c17.408 0 31.744-14.336 31.744-31.744s-14.336-31.744-31.744-31.744-31.744 14.336-31.744 31.744c0 17.408 13.312 31.744 31.744 31.744zM860.16 436.224c0-5.12-4.096-9.216-9.216-9.216h-284.672c-5.12 0-9.216 4.096-9.216 9.216v34.816c0 5.12 2.048 8.192 5.12 10.24l57.344 44.032c8.192 6.144 19.456 6.144 27.648 1.024l36.864-24.576c14.336-9.216 32.768-9.216 47.104 0l45.056 30.72c10.24 6.144 23.552 5.12 31.744-4.096l48.128-52.224c3.072-3.072 4.096-5.12 4.096-9.216v-30.72zM456.704 358.4h-284.672c-15.36 0-27.648-12.288-27.648-27.648v-189.44c0-15.36 12.288-27.648 27.648-27.648h284.672c15.36 0 27.648 12.288 27.648 27.648v189.44c0 15.36-12.288 27.648-27.648 27.648zM313.344 317.44c17.408 0 31.744-14.336 31.744-31.744s-14.336-31.744-31.744-31.744-31.744 14.336-31.744 31.744c1.024 17.408 15.36 31.744 31.744 31.744zM465.92 140.288c0-5.12-4.096-9.216-9.216-9.216h-284.672c-5.12 0-9.216 4.096-9.216 9.216v34.816c0 5.12 2.048 8.192 5.12 10.24l56.32 44.032c8.192 6.144 19.456 6.144 27.648 1.024l36.864-24.576c14.336-9.216 32.768-9.216 47.104 0l45.056 30.72c10.24 6.144 23.552 5.12 31.744-4.096l48.128-52.224c3.072-3.072 4.096-5.12 4.096-9.216 1.024 0 1.024-30.72 1.024-30.72zM850.944 358.4h-284.672c-15.36 0-27.648-12.288-27.648-27.648v-189.44c0-15.36 12.288-27.648 27.648-27.648h285.696c15.36 0 27.648 12.288 27.648 27.648v189.44c-1.024 15.36-13.312 27.648-28.672 27.648zM709.632 317.44c17.408 0 31.744-14.336 31.744-31.744s-14.336-31.744-31.744-31.744-31.744 14.336-31.744 31.744c0 17.408 13.312 31.744 31.744 31.744zM860.16 140.288c0-5.12-4.096-9.216-9.216-9.216h-284.672c-5.12 0-9.216 4.096-9.216 9.216v34.816c0 5.12 2.048 8.192 5.12 10.24l57.344 44.032c8.192 6.144 19.456 6.144 27.648 1.024l36.864-24.576c14.336-9.216 32.768-9.216 47.104 0l45.056 30.72c10.24 6.144 23.552 5.12 31.744-4.096l48.128-52.224c3.072-3.072 4.096-5.12 4.096-9.216v-30.72z" />
</font>
</defs>
</svg>
