<?xml version="1.0" standalone="no"?>
<!DOCTYPE svg PUBLIC "-//W3C//DTD SVG 1.1//EN" "http://www.w3.org/Graphics/SVG/1.1/DTD/svg11.dtd" >
<svg xmlns="http://www.w3.org/2000/svg">
<metadata>Generated by IcoMoon</metadata>
<defs>
<font id="forminator-icons-font" horiz-adv-x="1024">
<font-face units-per-em="1024" ascent="960" descent="-64" />
<missing-glyph horiz-adv-x="1024" />
<glyph unicode="&#x20;" horiz-adv-x="512" d="" />
<glyph unicode="&#x2297;" glyph-name="close" d="M1024 448c0-70.667-13.333-137-40-199-26.667-62.667-63.166-117.166-109.5-163.5s-100.833-82.833-163.5-109.5c-62-26.667-128.333-40-199-40s-137 13.333-199 40c-62.667 26.667-117.166 63.166-163.5 109.5s-82.833 100.833-109.5 163.5c-26.667 62-40 128.333-40 199s13.333 137 40 199c26.667 62.667 63.166 117.166 109.5 163.5s100.833 82.833 163.5 109.5c62 26.667 128.333 40 199 40s137-13.333 199-40c62.667-26.667 117.166-63.166 163.5-109.5s82.833-100.833 109.5-163.5c26.667-62 40-128.333 40-199zM680 235l50 51c2.667 2.667 5 6 7 10s3 8.333 3 13c0 4.667-1 9-3 13s-4.333 7.333-7 10l-122 122 122 121c2.667 3.333 5 7 7 11s3 8.333 3 13c0 4.667-1 9-3 13s-4.333 7.333-7 10l-50 50c-2.667 2.667-6 5-10 7s-8.333 3-13 3c-4.667 0-9-1-13-3s-7.333-4.333-10-7l-122-122-122 121c-2.667 3.333-6 5.833-10 7.5s-8.333 2.5-13 2.5c-4.667 0-9-0.833-13-2.5s-7.333-4.167-10-7.5l-50-50c-2.667-2.667-5-6-7-10s-3-8.333-3-13c0-4.667 1-9 3-13s4.333-7.333 7-10l122-122-122-121c-2.667-3.333-5-7-7-11s-3-8.333-3-13c0-4 1-8 3-12s4.333-7.667 7-11l50-50c2.667-2.667 6-4.833 10-6.5s8.333-2.5 13-2.5c4.667 0 9 0.833 13 2.5s7.333 3.833 10 6.5l122 122 122-122c2.667-2.667 6-4.833 10-6.5s8.333-2.5 13-2.5c4.667 0 9 0.833 13 2.5s7.333 3.833 10 6.5z" />
<glyph unicode="&#x22bc;" glyph-name="upload" d="M649.918 612.325c9.038 3.171 18.232 5.563 27.582 7.175 9.667 1.667 19.5 2.5 29.5 2.5 44 0 82.167-14 114.5-42s50.833-62.666 55.5-104h1c42-8.667 76.833-29 104.5-61s41.5-69 41.5-111c-1.333-48.667-20.333-90.166-57-124.5s-80.666-51.5-132-51.5h-323v128h80c8 0 15.667 1.333 23 4s14 6.667 20 12c13.333 12 20.5 26.833 21.5 44.5s-4.5 33.167-16.5 46.5l-144 160c-1.333 0.667-2.333 1.5-3 2.5s-1.333 1.833-2 2.5c-13.333 12-28.833 17.5-46.5 16.5s-32.5-8.167-44.5-21.5l-144-160c-5.333-6-9.333-12.667-12-20s-4-15-4-23c0-18 6.167-33.167 18.5-45.5s27.5-18.5 45.5-18.5h80v-128h-135c-33.334 0-65 6-95 18-30.667 12.667-57.333 29.5-80 50.5s-40.667 45.833-54 74.5c-13.333 28-20 58.333-20 91 0 31.333 6.333 60.667 19 88 12 27.333 28.667 51.333 50 72s46 37.333 74 50c28.667 12 59.333 18.667 92 20v1c6.667 49.334 29.833 90.833 69.5 124.5s86.166 50.5 139.5 50.5c50 0 94-14.667 132-44 37.909-29.263 62.549-66.488 73.918-111.675z" />
<glyph unicode="&#x2303;" glyph-name="chevron-up" d="M1000.169 204.59c3.198 3.198 5.995 6.595 8.393 10.192s4.796 7.394 7.194 11.391c1.599 4.796 2.998 9.592 4.197 14.389s1.799 9.592 1.799 14.389c0 5.596-0.6 10.792-1.799 15.588s-2.598 9.193-4.197 13.19l-7.194 11.991c-2.398 3.997-5.196 7.594-8.393 10.792l-440.056 437.658c-3.198 3.198-6.795 6.195-10.792 8.993s-7.994 4.996-11.991 6.595c-3.997 2.398-8.593 3.997-13.789 4.796s-10.192 1.199-14.988 1.199c-5.596 0-10.792-0.4-15.588-1.199s-9.193-2.398-13.19-4.796c-4.796-1.599-8.993-3.797-12.59-6.595s-6.995-5.795-10.192-8.993l-438.857-438.857c-6.395-6.395-11.391-13.789-14.988-22.183s-5.396-17.386-5.396-26.979v-1.199c0-5.596 0.6-10.792 1.799-15.588s2.598-9.592 4.197-14.389c1.599-3.997 3.597-7.794 5.995-11.391s5.196-6.995 8.393-10.192l51.56-52.759c3.198-3.198 6.795-5.995 10.792-8.393s7.994-4.397 11.991-5.995c3.997-2.398 8.393-3.997 13.19-4.796s9.992-1.199 15.588-1.199c4.796 0 9.592 0.4 14.389 1.199s9.193 2.398 13.19 4.796c4.796 1.599 8.993 3.597 12.59 5.995s6.995 5.196 10.192 8.393l338.136 336.937 335.738-335.738c3.198-3.198 6.795-5.995 10.792-8.393s7.994-4.397 11.991-5.995c4.796-2.398 9.393-4.197 13.789-5.396s9.393-1.799 14.988-1.799c5.596 0 10.792 0.4 15.588 1.199s9.193 2.398 13.19 4.796c3.997 1.599 7.994 3.597 11.991 5.995s7.594 5.596 10.792 9.593l51.56 51.56v1.199z" />
<glyph unicode="&#x2304;" glyph-name="chevron-down" d="M1000.169 691.41c3.198-3.198 5.995-6.595 8.393-10.192s4.796-7.394 7.194-11.391c1.599-4.796 2.998-9.592 4.197-14.389s1.799-9.592 1.799-14.389c0-5.596-0.6-10.792-1.799-15.588s-2.598-9.193-4.197-13.19l-7.194-11.991c-2.398-3.997-5.196-7.594-8.393-10.792l-440.056-437.658c-3.198-3.198-6.795-6.195-10.792-8.993s-7.994-4.996-11.991-6.595c-3.997-2.398-8.593-3.997-13.789-4.796s-10.192-1.199-14.988-1.199c-5.596 0-10.792 0.4-15.588 1.199s-9.193 2.398-13.19 4.796c-4.796 1.599-8.993 3.797-12.59 6.595s-6.995 5.795-10.192 8.993l-438.857 438.857c-6.395 6.395-11.391 13.789-14.988 22.183s-5.396 17.386-5.396 26.979v1.199c0 5.596 0.6 10.792 1.799 15.588s2.598 9.592 4.197 14.389c1.599 3.997 3.597 7.794 5.995 11.391s5.196 6.995 8.393 10.192l51.56 52.759c3.198 3.198 6.795 5.995 10.792 8.393s7.994 4.397 11.991 5.995c3.997 2.398 8.393 3.997 13.19 4.796s9.992 1.199 15.588 1.199c4.796 0 9.592-0.4 14.389-1.199s9.193-2.398 13.19-4.796c4.796-1.599 8.993-3.597 12.59-5.995s6.995-5.196 10.192-8.393l338.136-336.937 335.738 335.738c3.198 3.198 6.795 5.995 10.792 8.393s7.994 4.397 11.991 5.995c4.796 2.398 9.393 4.197 13.789 5.396s9.393 1.799 14.988 1.799c5.596 0 10.792-0.4 15.588-1.199s9.193-2.398 13.19-4.796c3.997-1.599 7.994-3.597 11.991-5.995s7.594-5.596 10.792-9.593l51.56-51.56v-1.199z" />
<glyph unicode="&#x25cc;" glyph-name="loader" d="M512 960c17.333 0 32-6 44-18s18-26.667 18-44v-152c0-17.333-6-32-18-44s-26.667-18-44-18c-17.333 0-32 6-44 18s-18 26.667-18 44v152c0 17.333 6 32 18 44s26.667 18 44 18zM512 212c17.333 0 32-6 44-18s18-26.667 18-44v-152c0-17.333-6-32-18-44s-26.667-18-44-18c-17.333 0-32 6-44 18s-18 26.667-18 44v152c0 17.333 6 32 18 44s26.667 18 44 18zM723 596c-17.333 0-32.167 6.167-44.5 18.5s-18.5 27.167-18.5 44.5c0 8 1.667 15.833 5 23.5s8 14.5 14 20.5l107 107c5.333 6 12 10.667 20 14s16.333 5 25 5c17.333 0 32-6 44-18s18-26.667 18-44c0-8.667-1.667-17-5-25s-8-14.667-14-20l-107-107c-6-6-12.667-10.667-20-14s-15.333-5-24-5zM301 300c17.333 0 32.167-6.167 44.5-18.5s18.5-27.167 18.5-44.5c0-8-1.667-15.833-5-23.5s-8-14.5-14-20.5l-107-107c-5.333-6-12-10.667-20-14s-16.333-5-25-5c-17.333 0-32 6-44 18s-18 26.667-18 44c0 8.667 1.667 17 5 25s8 14.667 14 20l107 107c6 6 12.667 10.667 20 14s15.333 5 24 5zM962 510c17.333 0 32-6 44-18s18-26.667 18-44c0-17.333-6-32-18-44s-26.667-18-44-18h-152c-17.333 0-32 6-44 18s-18 26.667-18 44c0 17.333 6 32 18 44s26.667 18 44 18h152zM276 448c0-17.333-6-32-18-44s-26.667-18-44-18h-152c-17.333 0-32 6-44 18s-18 26.667-18 44c0 17.333 6 32 18 44s26.667 18 44 18h152c17.333 0 32-6 44-18s18-26.667 18-44zM767 281l107-107c6-5.333 10.667-12 14-20s5-16.333 5-25c0-17.333-6-32-18-44s-26.667-18-44-18c-8.667 0-17 1.667-25 5s-14.667 8-20 14l-107 107c-6 6-10.833 12.833-14.5 20.5s-5.5 16.167-5.5 25.5c0 16.667 6.167 31.167 18.5 43.5s26.833 18.5 43.5 18.5c9.333 0 17.833-1.833 25.5-5.5s14.5-8.5 20.5-14.5zM238 810l107-107c6-6 10.833-12.833 14.5-20.5s5.5-16.167 5.5-25.5c0-16.667-6.167-31.167-18.5-43.5s-26.833-18.5-43.5-18.5c-9.333 0-17.833 1.833-25.5 5.5s-14.5 8.5-20.5 14.5l-107 107c-5.333 5.333-9.5 11.667-12.5 19s-4.5 15.333-4.5 24c0 17.333 6 32 18 44s26.667 18 44 18c8.667 0 16.667-1.5 24-4.5s13.667-7.167 19-12.5z" />
<glyph unicode="&#x26a0;" glyph-name="warning" d="M512-64c-70.667 0-137 13.333-199 40-62.667 26.667-117.166 63.166-163.5 109.5s-82.833 100.833-109.5 163.5c-26.667 62-40 128.333-40 199s13.333 137 40 199c26.667 62.667 63.166 117.166 109.5 163.5s100.833 82.833 163.5 109.5c62 26.667 128.333 40 199 40s137-13.333 199-40c62.667-26.667 117.166-63.166 163.5-109.5s82.833-100.833 109.5-163.5c26.667-62 40-128.333 40-199s-13.333-137-40-199c-26.667-62.667-63.166-117.166-109.5-163.5s-100.833-82.833-163.5-109.5c-62-26.667-128.333-40-199-40zM460 733l1-331c0-4.667 1.667-8.667 5-12s7.333-5 12-5h67c4.667 0 8.667 1.667 12 5s5 7.333 5 12v331c0 4.667-1.667 8.667-5 12s-7.333 5-12 5h-68c-4.667 0-8.667-1.667-12-5s-5-7.333-5-12zM512 311c-17.333 0-32.167-6.167-44.5-18.5s-18.5-27.167-18.5-44.5c0-17.333 6.167-32 18.5-44s26.833-18 43.5-18c17.333 0 32.167 6 44.5 18s18.5 26.667 18.5 44c0 17.333-6 32-18 44s-26.667 18.333-44 19z" />
<glyph unicode="&#x2713;" glyph-name="check" d="M1009.838 750.298c4.357-4.357 7.807-9.441 10.349-15.251s3.813-11.983 3.813-18.519c0-6.536-1.271-12.709-3.813-18.519s-5.991-10.894-10.349-15.251l-570.826-570.826c-8.715-7.989-18.882-14.525-30.502-19.609s-23.966-7.626-37.038-7.626c-13.072 0-25.418 2.542-37.038 7.626s-21.787 11.62-30.502 19.609l-289.77 287.591c-4.357 4.357-7.807 9.441-10.349 15.251s-3.813 11.983-3.813 18.519c0 6.536 1.271 12.709 3.813 18.519s5.991 10.894 10.349 15.251l68.63 68.63c4.357 4.357 9.441 7.807 15.251 10.349s11.983 3.813 18.519 3.813c6.536 0 12.709-1.271 18.519-3.813s10.894-5.991 15.251-10.349l221.14-221.14 502.196 503.285c4.357 4.357 9.441 7.807 15.251 10.349s11.983 3.813 18.519 3.813c6.536 0 12.709-1.271 18.519-3.813s10.894-5.991 15.251-10.349l68.63-67.54z" />
<glyph unicode="&#x2715;" glyph-name="cancel" d="M667.763 448l338.93-337.487c5.769-5.769 10.096-12.259 12.98-19.47s4.327-15.144 4.327-23.797c0-7.692-1.442-15.144-4.327-22.355s-7.211-13.701-12.98-19.47l-72.113-72.113c-5.769-5.769-12.259-10.096-19.47-12.98s-14.663-4.327-22.355-4.327c-8.654 0-16.586 1.442-23.797 4.327s-13.221 7.211-18.028 12.98l-338.93 338.93-338.93-338.93c-4.808-5.769-10.817-10.096-18.028-12.98s-15.144-4.327-23.797-4.327c-7.692 0-15.144 1.442-22.355 4.327s-13.701 7.211-19.47 12.98l-72.113 72.113c-5.769 5.769-10.096 12.259-12.98 19.47s-4.327 14.663-4.327 22.355c0 8.654 1.442 16.586 4.327 23.797s7.211 13.221 12.98 18.028l337.487 338.93-337.487 338.93c-5.769 4.808-10.096 10.817-12.98 18.028s-4.327 15.144-4.327 23.797c0 7.692 1.442 15.144 4.327 22.355s7.211 13.701 12.98 19.47l72.113 72.113c5.769 4.808 12.019 8.894 18.749 12.259s14.422 5.048 23.076 5.048c7.692 0 15.144-1.683 22.355-5.048s13.221-7.452 18.028-12.259l338.93-338.93 338.93 338.93c5.769 5.769 12.259 10.096 19.47 12.98s14.663 4.327 22.355 4.327c8.654 0 16.346-1.442 23.076-4.327s12.98-7.211 18.749-12.98l73.555-72.113c4.808-5.769 8.894-12.259 12.259-19.47s5.048-14.663 5.048-22.355c0-8.654-1.683-16.586-5.048-23.797s-7.452-13.221-12.259-18.028l-338.93-338.93z" />
<glyph unicode="&#x276e;" glyph-name="chevron-left" d="M753.162-42.417c-3.198-3.198-6.595-5.995-10.192-8.393s-7.394-4.796-11.391-7.194c-4.796-1.599-9.592-2.998-14.389-4.197s-9.592-1.799-14.389-1.799c-5.596 0-10.792 0.6-15.588 1.799s-9.193 2.598-13.19 4.197l-11.991 7.194c-3.997 2.398-7.594 5.196-10.792 8.393l-437.658 440.056c-3.198 3.198-6.195 6.795-8.993 10.792s-4.996 7.994-6.595 11.991c-2.398 3.997-3.997 8.593-4.796 13.789s-1.199 10.192-1.199 14.988c0 5.596 0.4 10.792 1.199 15.588s2.398 9.193 4.796 13.19c1.599 4.796 3.797 8.993 6.595 12.59s5.795 6.995 8.993 10.192l438.857 438.857c6.395 6.395 13.789 11.391 22.183 14.988s17.386 5.396 26.979 5.396h1.199c5.596 0 10.792-0.6 15.588-1.799s9.592-2.598 14.389-4.197c3.997-1.599 7.794-3.597 11.391-5.995s6.995-5.196 10.192-8.393l52.759-51.56c3.198-3.198 5.995-6.795 8.393-10.792s4.397-7.994 5.995-11.991c2.398-3.997 3.997-8.393 4.796-13.19s1.199-9.992 1.199-15.588c0-4.796-0.4-9.592-1.199-14.389s-2.398-9.193-4.796-13.19c-1.599-4.796-3.597-8.993-5.995-12.59s-5.196-6.995-8.393-10.192l-336.937-338.136 335.738-335.738c3.198-3.198 5.995-6.795 8.393-10.792s4.397-7.994 5.995-11.991c2.398-4.796 4.197-9.393 5.396-13.789s1.799-9.393 1.799-14.988c0-5.596-0.4-10.792-1.199-15.588s-2.398-9.193-4.796-13.19c-1.599-3.997-3.597-7.994-5.995-11.991s-5.596-7.594-9.593-10.792l-51.56-51.56h-1.199z" />
<glyph unicode="&#x276f;" glyph-name="chevron-right" d="M266.342 938.417c3.198 3.198 6.595 5.995 10.192 8.393s7.394 4.796 11.391 7.194c4.796 1.599 9.592 2.998 14.389 4.197s9.592 1.799 14.389 1.799c5.596 0 10.792-0.6 15.588-1.799s9.193-2.598 13.19-4.197l11.991-7.194c3.997-2.398 7.594-5.196 10.792-8.393l437.658-440.056c3.198-3.198 6.195-6.795 8.993-10.792s4.996-7.994 6.595-11.991c2.398-3.997 3.997-8.593 4.796-13.789s1.199-10.192 1.199-14.988c0-5.596-0.4-10.792-1.199-15.588s-2.398-9.193-4.796-13.19c-1.599-4.796-3.797-8.993-6.595-12.59s-5.795-6.995-8.993-10.192l-438.857-438.857c-6.395-6.395-13.789-11.391-22.183-14.988s-17.386-5.396-26.979-5.396h-1.199c-5.596 0-10.792 0.6-15.588 1.799s-9.592 2.598-14.389 4.197c-3.997 1.599-7.794 3.597-11.391 5.995s-6.995 5.196-10.192 8.393l-52.759 51.56c-3.198 3.198-5.995 6.795-8.393 10.792s-4.397 7.994-5.995 11.991c-2.398 3.997-3.997 8.393-4.796 13.19s-1.199 9.992-1.199 15.588c0 4.796 0.4 9.592 1.199 14.389s2.398 9.193 4.796 13.19c1.599 4.796 3.597 8.993 5.995 12.59s5.196 6.995 8.393 10.192l336.937 338.136-335.738 335.738c-3.198 3.198-5.995 6.795-8.393 10.792s-4.397 7.994-5.995 11.991c-2.398 4.796-4.197 9.393-5.396 13.789s-1.799 9.393-1.799 14.988c0 5.596 0.4 10.792 1.199 15.588s2.398 9.193 4.796 13.19c1.599 3.997 3.597 7.994 5.995 11.991s5.596 7.594 9.593 10.792l51.56 51.56h1.199z" />
<glyph unicode="&#x27f3;" glyph-name="refresh" d="M726.594 696.597c-0.724 0-1.447 0.368-2.171 1.103l-2.171 2.207c-37.628 33.833-80.502 57.737-128.623 71.712s-97.145 16.181-147.075 6.62c-44.864-8.091-85.386-24.272-121.567-48.543-36.905-24.272-67.477-53.876-91.718-88.812s-41.065-74.102-50.472-117.497c-10.131-43.395-11.216-87.893-3.256-133.494s23.879-86.789 47.759-123.565c23.879-37.511 53.005-68.586 87.377-93.225s72.904-41.74 115.598-51.301c42.694-10.297 86.472-11.4 131.336-3.31 41.97 7.355 80.864 22.433 116.683 45.234s66.392 51.117 91.718 84.951c13.749 19.859 32.563 31.627 56.442 35.304s45.226-1.839 64.040-16.549c19.538-13.975 31.115-33.098 34.734-57.369s-1.809-46.337-16.281-66.195c-18.814-25.743-39.799-49.646-62.955-71.712-23.879-22.065-49.206-41.556-75.98-58.473s-54.995-31.259-84.663-43.027c-30.392-11.768-61.507-20.594-93.346-26.478-68.744-12.504-135.678-10.665-200.803 5.516-64.402 15.446-123.014 41.924-175.839 79.435s-97.688 84.583-134.593 141.217c-36.181 56.634-60.422 119.519-72.723 188.657-12.302 69.873-10.493 137.907 5.427 204.103 15.196 65.46 41.246 125.036 78.151 178.728s83.216 99.293 138.934 136.804c55.719 36.775 117.587 61.415 185.607 73.918 38.352 6.62 76.341 8.826 113.969 6.62 38.352-1.471 75.437-7.539 111.256-18.204s70.371-24.823 103.658-42.475c32.563-18.388 63.316-40.453 92.261-66.195 2.894-2.942 5.97-5.884 9.226-8.826s6.332-5.884 9.226-8.826l52.1 47.44c6.513 5.884 13.749 10.481 21.708 13.791s16.281 4.965 24.965 4.965c19.538 0 36-6.987 49.387-20.962s20.080-30.523 20.080-49.647v-246.026c-2.171-19.123-10.673-34.753-25.507-46.888s-31.658-17.101-50.472-14.894l-233.366 24.272c-8.683 0.736-16.824 3.126-24.422 7.171s-14.291 9.378-20.080 15.997c-12.302 14.71-18.090 31.81-17.367 51.301s8.322 35.488 22.794 47.992l51.015 47.44z" />
<glyph unicode="&#x2941;" glyph-name="reset" d="M294.413 199.59c0-0.736 0.358-1.288 1.075-1.656s1.433-0.92 2.149-1.656c36.533-33.121 78.617-56.674 126.254-70.659s96.168-16.561 145.595-7.728c55.874 9.568 105.301 32.385 148.281 68.451s75.215 80.227 96.705 132.485c9.312 22.081 24.893 37.721 46.741 46.922s43.875 9.016 66.082-0.552c21.49-8.832 36.712-24.657 45.666-47.474s8.775-45.266-0.537-67.347c-15.759-39.746-36.175-76.915-61.247-111.508-25.072-33.857-53.725-64.034-85.96-90.532s-67.335-48.578-105.301-66.243c-37.966-17.665-78.080-30.545-120.344-38.642-37.966-6.624-75.573-8.832-112.823-6.624s-73.603 8.464-109.062 18.769c-35.459 10.304-69.663 24.289-102.615 41.954-32.952 18.401-63.395 40.481-91.333 66.243-2.865 2.944-5.91 5.704-9.133 8.28s-6.268 5.336-9.133 8.28l-50.502-46.37c-6.447-5.888-13.61-10.488-21.49-13.801s-16.117-4.968-24.714-4.968c-18.625 0-34.742 6.992-48.353 20.977s-20.416 30.545-20.416 49.682v238.473c0 1.472 0.179 2.76 0.537 3.864s0.537 2.392 0.537 3.864c2.149 19.137 10.566 34.777 25.251 46.922s31.34 17.481 49.964 16.009l231.018-25.393c7.88-0.736 15.759-3.128 23.639-7.176s14.327-9.384 19.341-16.009c12.894-13.985 18.804-30.729 17.729-50.234s-8.417-35.881-22.027-49.13l-51.576-47.474zM729.587 696.41c-0.716 0-1.433 0.368-2.149 1.104l-2.149 2.208c-37.25 33.857-79.692 57.778-127.328 71.763s-96.168 16.193-145.595 6.624c-55.158-9.568-104.406-32.201-147.744-67.899s-75.394-79.675-96.168-131.933c-9.312-22.817-25.072-38.825-47.278-48.026s-44.054-9.016-65.545 0.552c-22.206 9.568-37.787 25.577-46.741 48.026s-8.775 45.082 0.537 67.899c16.476 39.746 37.249 76.547 62.321 110.404s53.546 64.034 85.423 90.532c31.877 26.497 66.798 48.578 104.764 66.243 37.966 18.401 78.080 31.281 120.344 38.642 37.966 6.624 75.573 8.832 112.823 6.624 37.966-1.472 74.678-7.36 110.136-17.665s69.663-24.657 102.615-43.058c32.235-18.401 62.679-40.481 91.333-66.243 2.865-2.944 5.91-5.888 9.133-8.832s6.268-5.888 9.133-8.832l51.576 47.474c6.447 5.888 13.61 10.488 21.49 13.801s16.117 4.968 24.714 4.968c19.341 0 35.638-6.992 48.89-20.977s19.878-30.545 19.878-49.682v-246.202c-2.149-19.137-10.566-34.777-25.251-46.922s-31.34-17.113-49.964-14.905l-231.018 24.289c-8.596 0.736-16.655 3.128-24.176 7.176s-14.148 9.384-19.878 16.009c-12.178 14.721-17.908 31.833-17.192 51.338s8.238 35.513 22.565 48.026l50.502 47.474z" />
<glyph unicode="&#xe900;" glyph-name="social-facebook" d="M365-64v512h-109v176h109v106c0 36.667 4.333 69 13 97 8 28.667 21.333 52.833 40 72.5s43.333 34.5 74 44.5c30 10.667 67 16 111 16h147v-176h-92c-34 0-54.667-6.167-62-18.5s-11-29.833-11-52.5v-88h165l-18-177h-147v-512h-220z" />
<glyph unicode="&#xe90d;" glyph-name="social-linkedin" d="M229.714-64h-212.571v684.571h212.571v-684.571zM123.429 713.143c-34.286 0-63.428 12.19-87.429 36.571s-36 53.333-36 86.857c0 34.286 12 63.428 36 87.429s53.143 36 87.429 36c33.524 0 62.286-12 86.286-36s36-53.143 36-87.429c0-34.286-12-63.428-36-87.429s-52.762-36-86.286-36zM1024-64h-211.429v332.571c0 39.619-4.762 79.809-14.286 120.571s-41.714 61.143-96.571 61.143c-54.096 0-88.762-18.095-104-54.286s-22.857-76.762-22.857-121.714v-338.286h-212.571v684.571h203.429v-93.714h3.429c14.476 26.667 38.476 51.619 72 74.857s76.19 34.857 128 34.857c54.096 0 97.905-8 131.429-24 32.762-16.762 58.286-39.809 76.571-69.143s30.857-63.809 37.714-103.429c6.095-39.619 9.143-82.285 9.143-128v-376z" />
<glyph unicode="&#xe90e;" glyph-name="social-twitter" d="M1024 733l-1-1c-13.333-20.667-28.667-40-46-58s-36.333-34.667-57-50c0-4 0-8.333 0-13s0-9.333 0-14c0-69.334-13-139.333-39-210s-64.166-134.666-114.5-192c-50.334-57.334-112.833-104.333-187.5-141-74-36-159-54-255-54-0.667 0-1 0-1 0-30 0-59.333 2-88 6-28.667 4.667-56.5 11-83.5 19s-53.167 18-78.5 30c-25.333 11.333-49.667 24.667-73 40 8.667-1.333 17.333-2.333 26-3s17.333-1 26-1c0 0 0.167 0 0.5 0s0.5 0 0.5 0c49.334 0 96 8 140 24s83.666 38 119 66c-45.334 1.333-85.833 15.5-121.5 42.5s-60.833 61.5-75.5 103.5c6.667-1.333 13.333-2.333 20-3s13.667-1 21-1c10 0 19.667 0.667 29 2s17.667 3.333 25 6c-47.334 10-87 34.166-119 72.5s-48 82.5-48 132.5c0 0.667 0 1.333 0 2s-0.333 1.333-1 2c14-8 29.167-14.333 45.5-19s32.833-7.333 49.5-8c-27.333 19.333-49.5 44.167-66.5 74.5s-25.5 63.5-25.5 99.5c0 20 2.5 38.833 7.5 56.5s12.5 33.833 22.5 48.5c25.333-31.333 54-60 86-86 31.333-26 65.333-48.5 102-67.5s75.333-34.167 116-45.5c40.667-11.333 83-18.333 127-21-2 8-3.5 16.167-4.5 24.5s-1.5 16.833-1.5 25.5c0 28.667 5.333 56 16 82 11.333 25.333 26.5 47.5 45.5 66.5s41.167 33.833 66.5 44.5c25.333 11.333 52.667 17 82 17 30 0 58.333-6 85-18s50.333-28 71-48c24 4.667 47 11.167 69 19.5s42.333 18.167 61 29.5c-8-24-19.833-45.833-35.5-65.5s-33.833-36.167-54.5-49.5c21.333 2.667 42 6.833 62 12.5s38.667 12.5 56 20.5z" />
<glyph unicode="&#x1f4c4;" glyph-name="file" d="M230.4 960h409.6l307.2-307.2v-614.4c0-56.32-46.080-102.4-102.4-102.4h-614.912c-56.32 0-101.888 46.080-101.888 102.4v819.2c0 56.32 46.080 102.4 102.4 102.4zM332.8 140.8h409.6v102.4h-409.6v-102.4zM588.8 883.2v-281.6h281.6l-281.6 281.6zM742.4 345.6v102.4h-409.6v-102.4h409.6z" />
<glyph unicode="&#x1f4c5;" glyph-name="calendar" d="M954 598c4.667 0 8.833-1.833 12.5-5.5s5.5-7.833 5.5-12.5v-626c0-5.333-1.833-9.667-5.5-13s-7.833-5-12.5-5h-872c-4.667 0-8.833 1.833-12.5 5.5s-5.5 7.833-5.5 12.5v626c0 4.667 1.833 8.833 5.5 12.5s7.833 5.5 12.5 5.5h872zM367 69l-1-1c48 0 86.167 10.667 114.5 32s42.5 50.333 42.5 87c0 25.333-7.333 44.833-22 58.5s-30.667 23.833-48 30.5c20 9.333 35 21.167 45 35.5s15 30.833 15 49.5c0 25.333-11.167 45.833-33.5 61.5s-51.833 23.5-88.5 23.5h-8c-17.333 0-34.167-1.667-50.5-5s-31.5-8-45.5-14c-1.333-0.667-2.5-1.667-3.5-3s-1.5-3-1.5-5v-1l8-61c0.667-2 1.333-3.5 2-4.5s1.667-1.833 3-2.5c0.667 0 1.333-0.167 2-0.5s1.333-0.5 2-0.5h2c0.667 0 1 0.333 1 1 10.667 5.333 21.833 9.5 33.5 12.5s23.833 4.5 36.5 4.5c20 0 31.667-3 35-9s5-11 5-15c0-7.333-3.5-14.667-10.5-22s-25.833-12-56.5-14c-2-0.667-3.833-1.833-5.5-3.5s-2.5-3.5-2.5-5.5v-61c0-2.667 0.833-4.833 2.5-6.5s3.833-2.5 6.5-2.5c34.667-2 57-6.667 67-14s15-17.667 15-31c0-10.667-5-19.333-15-26s-22.667-10-38-10h-3c-14.667 0-28.667 1.333-42 4s-25.667 6.333-37 11c-0.667 0.667-1.333 1-2 1h-4c-0.667 0-1.333-0.333-2-1-1.333-0.667-2.333-1.5-3-2.5s-1.333-2.167-2-3.5l-8-61v-2c0-1.333 0.5-2.833 1.5-4.5s1.833-2.5 2.5-2.5c14-6 28.667-10.333 44-13s31-4 47-4zM747 82v350c0 2-0.833 4-2.5 6s-3.833 3-6.5 3h-37c-0.667 0-1.333-0.167-2-0.5s-1.333-0.5-2-0.5l-107-53c-1.333-0.667-2.5-1.667-3.5-3s-1.5-3-1.5-5v-1l9-62c0-1.333 0.333-2.5 1-3.5s1.667-1.833 3-2.5c0.667 0 1.333-0.167 2-0.5s1.333-0.5 2-0.5c0.667 0 1.333 0.167 2 0.5s1.333 0.5 2 0.5l49 19v-247c0-2 0.833-4 2.5-6s3.833-3 6.5-3h74c2.667 0 4.833 1 6.5 3s2.5 4 2.5 6zM954 879c4.667 0 8.833-1.667 12.5-5s5.5-7.333 5.5-12v-184c0-4.667-1.833-8.833-5.5-12.5s-7.833-5.5-12.5-5.5h-872c-4.667 0-8.833 1.833-12.5 5.5s-5.5 7.833-5.5 12.5v184c0 4.667 1.833 8.667 5.5 12s7.833 5 12.5 5h94v-43c0-23.333 7.5-45 22.5-65s41.166-30 78.5-30c36.667 0 62.5 10 77.5 30s22.5 41.667 22.5 65v43h284v-43c0-23.333 7.333-45 22-65s40.666-30 78-30c36.667 0 62.5 10 77.5 30s22.5 41.667 22.5 65v43h93zM277 799c-15.333 0-26.167 2.833-32.5 8.5s-9.5 15.167-9.5 28.5v87c0 13.333 3.167 22.833 9.5 28.5s17.167 8.5 32.5 8.5c14.667 0 25.167-2.833 31.5-8.5s9.5-15.167 9.5-28.5v-87c0-13.333-3.167-22.833-9.5-28.5s-16.833-8.5-31.5-8.5zM761 799c-15.333 0-26.167 2.833-32.5 8.5s-9.5 15.167-9.5 28.5v87c0 13.333 3.167 22.833 9.5 28.5s17.167 8.5 32.5 8.5c14.667 0 25.333-2.833 32-8.5s10-15.167 10-28.5v-87c0-13.333-3.333-22.833-10-28.5s-17.333-8.5-32-8.5z" />
<glyph unicode="warning" glyph-name="warning" d="M512-64c-70.667 0-137 13.333-199 40-62.667 26.667-117.166 63.166-163.5 109.5s-82.833 100.833-109.5 163.5c-26.667 62-40 128.333-40 199s13.333 137 40 199c26.667 62.667 63.166 117.166 109.5 163.5s100.833 82.833 163.5 109.5c62 26.667 128.333 40 199 40s137-13.333 199-40c62.667-26.667 117.166-63.166 163.5-109.5s82.833-100.833 109.5-163.5c26.667-62 40-128.333 40-199s-13.333-137-40-199c-26.667-62.667-63.166-117.166-109.5-163.5s-100.833-82.833-163.5-109.5c-62-26.667-128.333-40-199-40zM460 733l1-331c0-4.667 1.667-8.667 5-12s7.333-5 12-5h67c4.667 0 8.667 1.667 12 5s5 7.333 5 12v331c0 4.667-1.667 8.667-5 12s-7.333 5-12 5h-68c-4.667 0-8.667-1.667-12-5s-5-7.333-5-12zM512 311c-17.333 0-32.167-6.167-44.5-18.5s-18.5-27.167-18.5-44.5c0-17.333 6.167-32 18.5-44s26.833-18 43.5-18c17.333 0 32.167 6 44.5 18s18.5 26.667 18.5 44c0 17.333-6 32-18 44s-26.667 18.333-44 19z" />
<glyph unicode="upload" glyph-name="upload" d="M649.918 612.325c9.038 3.171 18.232 5.563 27.582 7.175 9.667 1.667 19.5 2.5 29.5 2.5 44 0 82.167-14 114.5-42s50.833-62.666 55.5-104h1c42-8.667 76.833-29 104.5-61s41.5-69 41.5-111c-1.333-48.667-20.333-90.166-57-124.5s-80.666-51.5-132-51.5h-323v128h80c8 0 15.667 1.333 23 4s14 6.667 20 12c13.333 12 20.5 26.833 21.5 44.5s-4.5 33.167-16.5 46.5l-144 160c-1.333 0.667-2.333 1.5-3 2.5s-1.333 1.833-2 2.5c-13.333 12-28.833 17.5-46.5 16.5s-32.5-8.167-44.5-21.5l-144-160c-5.333-6-9.333-12.667-12-20s-4-15-4-23c0-18 6.167-33.167 18.5-45.5s27.5-18.5 45.5-18.5h80v-128h-135c-33.334 0-65 6-95 18-30.667 12.667-57.333 29.5-80 50.5s-40.667 45.833-54 74.5c-13.333 28-20 58.333-20 91 0 31.333 6.333 60.667 19 88 12 27.333 28.667 51.333 50 72s46 37.333 74 50c28.667 12 59.333 18.667 92 20v1c6.667 49.334 29.833 90.833 69.5 124.5s86.166 50.5 139.5 50.5c50 0 94-14.667 132-44 37.909-29.263 62.549-66.488 73.918-111.675z" />
<glyph unicode="up" glyph-name="chevron-up" d="M1000.169 204.59c3.198 3.198 5.995 6.595 8.393 10.192s4.796 7.394 7.194 11.391c1.599 4.796 2.998 9.592 4.197 14.389s1.799 9.592 1.799 14.389c0 5.596-0.6 10.792-1.799 15.588s-2.598 9.193-4.197 13.19l-7.194 11.991c-2.398 3.997-5.196 7.594-8.393 10.792l-440.056 437.658c-3.198 3.198-6.795 6.195-10.792 8.993s-7.994 4.996-11.991 6.595c-3.997 2.398-8.593 3.997-13.789 4.796s-10.192 1.199-14.988 1.199c-5.596 0-10.792-0.4-15.588-1.199s-9.193-2.398-13.19-4.796c-4.796-1.599-8.993-3.797-12.59-6.595s-6.995-5.795-10.192-8.993l-438.857-438.857c-6.395-6.395-11.391-13.789-14.988-22.183s-5.396-17.386-5.396-26.979v-1.199c0-5.596 0.6-10.792 1.799-15.588s2.598-9.592 4.197-14.389c1.599-3.997 3.597-7.794 5.995-11.391s5.196-6.995 8.393-10.192l51.56-52.759c3.198-3.198 6.795-5.995 10.792-8.393s7.994-4.397 11.991-5.995c3.997-2.398 8.393-3.997 13.19-4.796s9.992-1.199 15.588-1.199c4.796 0 9.592 0.4 14.389 1.199s9.193 2.398 13.19 4.796c4.796 1.599 8.993 3.597 12.59 5.995s6.995 5.196 10.192 8.393l338.136 336.937 335.738-335.738c3.198-3.198 6.795-5.995 10.792-8.393s7.994-4.397 11.991-5.995c4.796-2.398 9.393-4.197 13.789-5.396s9.393-1.799 14.988-1.799c5.596 0 10.792 0.4 15.588 1.199s9.193 2.398 13.19 4.796c3.997 1.599 7.994 3.597 11.991 5.995s7.594 5.596 10.792 9.593l51.56 51.56v1.199z" />
<glyph unicode="twitter" glyph-name="social-twitter" d="M1024 733l-1-1c-13.333-20.667-28.667-40-46-58s-36.333-34.667-57-50c0-4 0-8.333 0-13s0-9.333 0-14c0-69.334-13-139.333-39-210s-64.166-134.666-114.5-192c-50.334-57.334-112.833-104.333-187.5-141-74-36-159-54-255-54-0.667 0-1 0-1 0-30 0-59.333 2-88 6-28.667 4.667-56.5 11-83.5 19s-53.167 18-78.5 30c-25.333 11.333-49.667 24.667-73 40 8.667-1.333 17.333-2.333 26-3s17.333-1 26-1c0 0 0.167 0 0.5 0s0.5 0 0.5 0c49.334 0 96 8 140 24s83.666 38 119 66c-45.334 1.333-85.833 15.5-121.5 42.5s-60.833 61.5-75.5 103.5c6.667-1.333 13.333-2.333 20-3s13.667-1 21-1c10 0 19.667 0.667 29 2s17.667 3.333 25 6c-47.334 10-87 34.166-119 72.5s-48 82.5-48 132.5c0 0.667 0 1.333 0 2s-0.333 1.333-1 2c14-8 29.167-14.333 45.5-19s32.833-7.333 49.5-8c-27.333 19.333-49.5 44.167-66.5 74.5s-25.5 63.5-25.5 99.5c0 20 2.5 38.833 7.5 56.5s12.5 33.833 22.5 48.5c25.333-31.333 54-60 86-86 31.333-26 65.333-48.5 102-67.5s75.333-34.167 116-45.5c40.667-11.333 83-18.333 127-21-2 8-3.5 16.167-4.5 24.5s-1.5 16.833-1.5 25.5c0 28.667 5.333 56 16 82 11.333 25.333 26.5 47.5 45.5 66.5s41.167 33.833 66.5 44.5c25.333 11.333 52.667 17 82 17 30 0 58.333-6 85-18s50.333-28 71-48c24 4.667 47 11.167 69 19.5s42.333 18.167 61 29.5c-8-24-19.833-45.833-35.5-65.5s-33.833-36.167-54.5-49.5c21.333 2.667 42 6.833 62 12.5s38.667 12.5 56 20.5z" />
<glyph unicode="right" glyph-name="chevron-right" d="M266.342 938.417c3.198 3.198 6.595 5.995 10.192 8.393s7.394 4.796 11.391 7.194c4.796 1.599 9.592 2.998 14.389 4.197s9.592 1.799 14.389 1.799c5.596 0 10.792-0.6 15.588-1.799s9.193-2.598 13.19-4.197l11.991-7.194c3.997-2.398 7.594-5.196 10.792-8.393l437.658-440.056c3.198-3.198 6.195-6.795 8.993-10.792s4.996-7.994 6.595-11.991c2.398-3.997 3.997-8.593 4.796-13.789s1.199-10.192 1.199-14.988c0-5.596-0.4-10.792-1.199-15.588s-2.398-9.193-4.796-13.19c-1.599-4.796-3.797-8.993-6.595-12.59s-5.795-6.995-8.993-10.192l-438.857-438.857c-6.395-6.395-13.789-11.391-22.183-14.988s-17.386-5.396-26.979-5.396h-1.199c-5.596 0-10.792 0.6-15.588 1.799s-9.592 2.598-14.389 4.197c-3.997 1.599-7.794 3.597-11.391 5.995s-6.995 5.196-10.192 8.393l-52.759 51.56c-3.198 3.198-5.995 6.795-8.393 10.792s-4.397 7.994-5.995 11.991c-2.398 3.997-3.997 8.393-4.796 13.19s-1.199 9.992-1.199 15.588c0 4.796 0.4 9.592 1.199 14.389s2.398 9.193 4.796 13.19c1.599 4.796 3.597 8.993 5.995 12.59s5.196 6.995 8.393 10.192l336.937 338.136-335.738 335.738c-3.198 3.198-5.995 6.795-8.393 10.792s-4.397 7.994-5.995 11.991c-2.398 4.796-4.197 9.393-5.396 13.789s-1.799 9.393-1.799 14.988c0 5.596 0.4 10.792 1.199 15.588s2.398 9.193 4.796 13.19c1.599 3.997 3.597 7.994 5.995 11.991s5.596 7.594 9.593 10.792l51.56 51.56h1.199z" />
<glyph unicode="reset" glyph-name="reset" d="M294.413 199.59c0-0.736 0.358-1.288 1.075-1.656s1.433-0.92 2.149-1.656c36.533-33.121 78.617-56.674 126.254-70.659s96.168-16.561 145.595-7.728c55.874 9.568 105.301 32.385 148.281 68.451s75.215 80.227 96.705 132.485c9.312 22.081 24.893 37.721 46.741 46.922s43.875 9.016 66.082-0.552c21.49-8.832 36.712-24.657 45.666-47.474s8.775-45.266-0.537-67.347c-15.759-39.746-36.175-76.915-61.247-111.508-25.072-33.857-53.725-64.034-85.96-90.532s-67.335-48.578-105.301-66.243c-37.966-17.665-78.080-30.545-120.344-38.642-37.966-6.624-75.573-8.832-112.823-6.624s-73.603 8.464-109.062 18.769c-35.459 10.304-69.663 24.289-102.615 41.954-32.952 18.401-63.395 40.481-91.333 66.243-2.865 2.944-5.91 5.704-9.133 8.28s-6.268 5.336-9.133 8.28l-50.502-46.37c-6.447-5.888-13.61-10.488-21.49-13.801s-16.117-4.968-24.714-4.968c-18.625 0-34.742 6.992-48.353 20.977s-20.416 30.545-20.416 49.682v238.473c0 1.472 0.179 2.76 0.537 3.864s0.537 2.392 0.537 3.864c2.149 19.137 10.566 34.777 25.251 46.922s31.34 17.481 49.964 16.009l231.018-25.393c7.88-0.736 15.759-3.128 23.639-7.176s14.327-9.384 19.341-16.009c12.894-13.985 18.804-30.729 17.729-50.234s-8.417-35.881-22.027-49.13l-51.576-47.474zM729.587 696.41c-0.716 0-1.433 0.368-2.149 1.104l-2.149 2.208c-37.25 33.857-79.692 57.778-127.328 71.763s-96.168 16.193-145.595 6.624c-55.158-9.568-104.406-32.201-147.744-67.899s-75.394-79.675-96.168-131.933c-9.312-22.817-25.072-38.825-47.278-48.026s-44.054-9.016-65.545 0.552c-22.206 9.568-37.787 25.577-46.741 48.026s-8.775 45.082 0.537 67.899c16.476 39.746 37.249 76.547 62.321 110.404s53.546 64.034 85.423 90.532c31.877 26.497 66.798 48.578 104.764 66.243 37.966 18.401 78.080 31.281 120.344 38.642 37.966 6.624 75.573 8.832 112.823 6.624 37.966-1.472 74.678-7.36 110.136-17.665s69.663-24.657 102.615-43.058c32.235-18.401 62.679-40.481 91.333-66.243 2.865-2.944 5.91-5.888 9.133-8.832s6.268-5.888 9.133-8.832l51.576 47.474c6.447 5.888 13.61 10.488 21.49 13.801s16.117 4.968 24.714 4.968c19.341 0 35.638-6.992 48.89-20.977s19.878-30.545 19.878-49.682v-246.202c-2.149-19.137-10.566-34.777-25.251-46.922s-31.34-17.113-49.964-14.905l-231.018 24.289c-8.596 0.736-16.655 3.128-24.176 7.176s-14.148 9.384-19.878 16.009c-12.178 14.721-17.908 31.833-17.192 51.338s8.238 35.513 22.565 48.026l50.502 47.474z" />
<glyph unicode="refresh" glyph-name="refresh" d="M726.594 696.597c-0.724 0-1.447 0.368-2.171 1.103l-2.171 2.207c-37.628 33.833-80.502 57.737-128.623 71.712s-97.145 16.181-147.075 6.62c-44.864-8.091-85.386-24.272-121.567-48.543-36.905-24.272-67.477-53.876-91.718-88.812s-41.065-74.102-50.472-117.497c-10.131-43.395-11.216-87.893-3.256-133.494s23.879-86.789 47.759-123.565c23.879-37.511 53.005-68.586 87.377-93.225s72.904-41.74 115.598-51.301c42.694-10.297 86.472-11.4 131.336-3.31 41.97 7.355 80.864 22.433 116.683 45.234s66.392 51.117 91.718 84.951c13.749 19.859 32.563 31.627 56.442 35.304s45.226-1.839 64.040-16.549c19.538-13.975 31.115-33.098 34.734-57.369s-1.809-46.337-16.281-66.195c-18.814-25.743-39.799-49.646-62.955-71.712-23.879-22.065-49.206-41.556-75.98-58.473s-54.995-31.259-84.663-43.027c-30.392-11.768-61.507-20.594-93.346-26.478-68.744-12.504-135.678-10.665-200.803 5.516-64.402 15.446-123.014 41.924-175.839 79.435s-97.688 84.583-134.593 141.217c-36.181 56.634-60.422 119.519-72.723 188.657-12.302 69.873-10.493 137.907 5.427 204.103 15.196 65.46 41.246 125.036 78.151 178.728s83.216 99.293 138.934 136.804c55.719 36.775 117.587 61.415 185.607 73.918 38.352 6.62 76.341 8.826 113.969 6.62 38.352-1.471 75.437-7.539 111.256-18.204s70.371-24.823 103.658-42.475c32.563-18.388 63.316-40.453 92.261-66.195 2.894-2.942 5.97-5.884 9.226-8.826s6.332-5.884 9.226-8.826l52.1 47.44c6.513 5.884 13.749 10.481 21.708 13.791s16.281 4.965 24.965 4.965c19.538 0 36-6.987 49.387-20.962s20.080-30.523 20.080-49.647v-246.026c-2.171-19.123-10.673-34.753-25.507-46.888s-31.658-17.101-50.472-14.894l-233.366 24.272c-8.683 0.736-16.824 3.126-24.422 7.171s-14.291 9.378-20.080 15.997c-12.302 14.71-18.090 31.81-17.367 51.301s8.322 35.488 22.794 47.992l51.015 47.44z" />
<glyph unicode="loader" glyph-name="loader" d="M512 960c17.333 0 32-6 44-18s18-26.667 18-44v-152c0-17.333-6-32-18-44s-26.667-18-44-18c-17.333 0-32 6-44 18s-18 26.667-18 44v152c0 17.333 6 32 18 44s26.667 18 44 18zM512 212c17.333 0 32-6 44-18s18-26.667 18-44v-152c0-17.333-6-32-18-44s-26.667-18-44-18c-17.333 0-32 6-44 18s-18 26.667-18 44v152c0 17.333 6 32 18 44s26.667 18 44 18zM723 596c-17.333 0-32.167 6.167-44.5 18.5s-18.5 27.167-18.5 44.5c0 8 1.667 15.833 5 23.5s8 14.5 14 20.5l107 107c5.333 6 12 10.667 20 14s16.333 5 25 5c17.333 0 32-6 44-18s18-26.667 18-44c0-8.667-1.667-17-5-25s-8-14.667-14-20l-107-107c-6-6-12.667-10.667-20-14s-15.333-5-24-5zM301 300c17.333 0 32.167-6.167 44.5-18.5s18.5-27.167 18.5-44.5c0-8-1.667-15.833-5-23.5s-8-14.5-14-20.5l-107-107c-5.333-6-12-10.667-20-14s-16.333-5-25-5c-17.333 0-32 6-44 18s-18 26.667-18 44c0 8.667 1.667 17 5 25s8 14.667 14 20l107 107c6 6 12.667 10.667 20 14s15.333 5 24 5zM962 510c17.333 0 32-6 44-18s18-26.667 18-44c0-17.333-6-32-18-44s-26.667-18-44-18h-152c-17.333 0-32 6-44 18s-18 26.667-18 44c0 17.333 6 32 18 44s26.667 18 44 18h152zM276 448c0-17.333-6-32-18-44s-26.667-18-44-18h-152c-17.333 0-32 6-44 18s-18 26.667-18 44c0 17.333 6 32 18 44s26.667 18 44 18h152c17.333 0 32-6 44-18s18-26.667 18-44zM767 281l107-107c6-5.333 10.667-12 14-20s5-16.333 5-25c0-17.333-6-32-18-44s-26.667-18-44-18c-8.667 0-17 1.667-25 5s-14.667 8-20 14l-107 107c-6 6-10.833 12.833-14.5 20.5s-5.5 16.167-5.5 25.5c0 16.667 6.167 31.167 18.5 43.5s26.833 18.5 43.5 18.5c9.333 0 17.833-1.833 25.5-5.5s14.5-8.5 20.5-14.5zM238 810l107-107c6-6 10.833-12.833 14.5-20.5s5.5-16.167 5.5-25.5c0-16.667-6.167-31.167-18.5-43.5s-26.833-18.5-43.5-18.5c-9.333 0-17.833 1.833-25.5 5.5s-14.5 8.5-20.5 14.5l-107 107c-5.333 5.333-9.5 11.667-12.5 19s-4.5 15.333-4.5 24c0 17.333 6 32 18 44s26.667 18 44 18c8.667 0 16.667-1.5 24-4.5s13.667-7.167 19-12.5z" />
<glyph unicode="linkedin" glyph-name="social-linkedin" d="M229.714-64h-212.571v684.571h212.571v-684.571zM123.429 713.143c-34.286 0-63.428 12.19-87.429 36.571s-36 53.333-36 86.857c0 34.286 12 63.428 36 87.429s53.143 36 87.429 36c33.524 0 62.286-12 86.286-36s36-53.143 36-87.429c0-34.286-12-63.428-36-87.429s-52.762-36-86.286-36zM1024-64h-211.429v332.571c0 39.619-4.762 79.809-14.286 120.571s-41.714 61.143-96.571 61.143c-54.096 0-88.762-18.095-104-54.286s-22.857-76.762-22.857-121.714v-338.286h-212.571v684.571h203.429v-93.714h3.429c14.476 26.667 38.476 51.619 72 74.857s76.19 34.857 128 34.857c54.096 0 97.905-8 131.429-24 32.762-16.762 58.286-39.809 76.571-69.143s30.857-63.809 37.714-103.429c6.095-39.619 9.143-82.285 9.143-128v-376z" />
<glyph unicode="left" glyph-name="chevron-left" d="M753.162-42.417c-3.198-3.198-6.595-5.995-10.192-8.393s-7.394-4.796-11.391-7.194c-4.796-1.599-9.592-2.998-14.389-4.197s-9.592-1.799-14.389-1.799c-5.596 0-10.792 0.6-15.588 1.799s-9.193 2.598-13.19 4.197l-11.991 7.194c-3.997 2.398-7.594 5.196-10.792 8.393l-437.658 440.056c-3.198 3.198-6.195 6.795-8.993 10.792s-4.996 7.994-6.595 11.991c-2.398 3.997-3.997 8.593-4.796 13.789s-1.199 10.192-1.199 14.988c0 5.596 0.4 10.792 1.199 15.588s2.398 9.193 4.796 13.19c1.599 4.796 3.797 8.993 6.595 12.59s5.795 6.995 8.993 10.192l438.857 438.857c6.395 6.395 13.789 11.391 22.183 14.988s17.386 5.396 26.979 5.396h1.199c5.596 0 10.792-0.6 15.588-1.799s9.592-2.598 14.389-4.197c3.997-1.599 7.794-3.597 11.391-5.995s6.995-5.196 10.192-8.393l52.759-51.56c3.198-3.198 5.995-6.795 8.393-10.792s4.397-7.994 5.995-11.991c2.398-3.997 3.997-8.393 4.796-13.19s1.199-9.992 1.199-15.588c0-4.796-0.4-9.592-1.199-14.389s-2.398-9.193-4.796-13.19c-1.599-4.796-3.597-8.993-5.995-12.59s-5.196-6.995-8.393-10.192l-336.937-338.136 335.738-335.738c3.198-3.198 5.995-6.795 8.393-10.792s4.397-7.994 5.995-11.991c2.398-4.796 4.197-9.393 5.396-13.789s1.799-9.393 1.799-14.988c0-5.596-0.4-10.792-1.199-15.588s-2.398-9.193-4.796-13.19c-1.599-3.997-3.597-7.994-5.995-11.991s-5.596-7.594-9.593-10.792l-51.56-51.56h-1.199z" />
<glyph unicode="file" glyph-name="file" d="M230.4 960h409.6l307.2-307.2v-614.4c0-56.32-46.080-102.4-102.4-102.4h-614.912c-56.32 0-101.888 46.080-101.888 102.4v819.2c0 56.32 46.080 102.4 102.4 102.4zM332.8 140.8h409.6v102.4h-409.6v-102.4zM588.8 883.2v-281.6h281.6l-281.6 281.6zM742.4 345.6v102.4h-409.6v-102.4h409.6z" />
<glyph unicode="facebook" glyph-name="social-facebook" d="M365-64v512h-109v176h109v106c0 36.667 4.333 69 13 97 8 28.667 21.333 52.833 40 72.5s43.333 34.5 74 44.5c30 10.667 67 16 111 16h147v-176h-92c-34 0-54.667-6.167-62-18.5s-11-29.833-11-52.5v-88h165l-18-177h-147v-512h-220z" />
<glyph unicode="down" glyph-name="chevron-down" d="M1000.169 691.41c3.198-3.198 5.995-6.595 8.393-10.192s4.796-7.394 7.194-11.391c1.599-4.796 2.998-9.592 4.197-14.389s1.799-9.592 1.799-14.389c0-5.596-0.6-10.792-1.799-15.588s-2.598-9.193-4.197-13.19l-7.194-11.991c-2.398-3.997-5.196-7.594-8.393-10.792l-440.056-437.658c-3.198-3.198-6.795-6.195-10.792-8.993s-7.994-4.996-11.991-6.595c-3.997-2.398-8.593-3.997-13.789-4.796s-10.192-1.199-14.988-1.199c-5.596 0-10.792 0.4-15.588 1.199s-9.193 2.398-13.19 4.796c-4.796 1.599-8.993 3.797-12.59 6.595s-6.995 5.795-10.192 8.993l-438.857 438.857c-6.395 6.395-11.391 13.789-14.988 22.183s-5.396 17.386-5.396 26.979v1.199c0 5.596 0.6 10.792 1.799 15.588s2.598 9.592 4.197 14.389c1.599 3.997 3.597 7.794 5.995 11.391s5.196 6.995 8.393 10.192l51.56 52.759c3.198 3.198 6.795 5.995 10.792 8.393s7.994 4.397 11.991 5.995c3.997 2.398 8.393 3.997 13.19 4.796s9.992 1.199 15.588 1.199c4.796 0 9.592-0.4 14.389-1.199s9.193-2.398 13.19-4.796c4.796-1.599 8.993-3.597 12.59-5.995s6.995-5.196 10.192-8.393l338.136-336.937 335.738 335.738c3.198 3.198 6.795 5.995 10.792 8.393s7.994 4.397 11.991 5.995c4.796 2.398 9.393 4.197 13.789 5.396s9.393 1.799 14.988 1.799c5.596 0 10.792-0.4 15.588-1.199s9.193-2.398 13.19-4.796c3.997-1.599 7.994-3.597 11.991-5.995s7.594-5.596 10.792-9.593l51.56-51.56v-1.199z" />
<glyph unicode="close" glyph-name="close" d="M1024 448c0-70.667-13.333-137-40-199-26.667-62.667-63.166-117.166-109.5-163.5s-100.833-82.833-163.5-109.5c-62-26.667-128.333-40-199-40s-137 13.333-199 40c-62.667 26.667-117.166 63.166-163.5 109.5s-82.833 100.833-109.5 163.5c-26.667 62-40 128.333-40 199s13.333 137 40 199c26.667 62.667 63.166 117.166 109.5 163.5s100.833 82.833 163.5 109.5c62 26.667 128.333 40 199 40s137-13.333 199-40c62.667-26.667 117.166-63.166 163.5-109.5s82.833-100.833 109.5-163.5c26.667-62 40-128.333 40-199zM680 235l50 51c2.667 2.667 5 6 7 10s3 8.333 3 13c0 4.667-1 9-3 13s-4.333 7.333-7 10l-122 122 122 121c2.667 3.333 5 7 7 11s3 8.333 3 13c0 4.667-1 9-3 13s-4.333 7.333-7 10l-50 50c-2.667 2.667-6 5-10 7s-8.333 3-13 3c-4.667 0-9-1-13-3s-7.333-4.333-10-7l-122-122-122 121c-2.667 3.333-6 5.833-10 7.5s-8.333 2.5-13 2.5c-4.667 0-9-0.833-13-2.5s-7.333-4.167-10-7.5l-50-50c-2.667-2.667-5-6-7-10s-3-8.333-3-13c0-4.667 1-9 3-13s4.333-7.333 7-10l122-122-122-121c-2.667-3.333-5-7-7-11s-3-8.333-3-13c0-4 1-8 3-12s4.333-7.667 7-11l50-50c2.667-2.667 6-4.833 10-6.5s8.333-2.5 13-2.5c4.667 0 9 0.833 13 2.5s7.333 3.833 10 6.5l122 122 122-122c2.667-2.667 6-4.833 10-6.5s8.333-2.5 13-2.5c4.667 0 9 0.833 13 2.5s7.333 3.833 10 6.5z" />
<glyph unicode="checkmark" glyph-name="check" d="M1009.838 750.298c4.357-4.357 7.807-9.441 10.349-15.251s3.813-11.983 3.813-18.519c0-6.536-1.271-12.709-3.813-18.519s-5.991-10.894-10.349-15.251l-570.826-570.826c-8.715-7.989-18.882-14.525-30.502-19.609s-23.966-7.626-37.038-7.626c-13.072 0-25.418 2.542-37.038 7.626s-21.787 11.62-30.502 19.609l-289.77 287.591c-4.357 4.357-7.807 9.441-10.349 15.251s-3.813 11.983-3.813 18.519c0 6.536 1.271 12.709 3.813 18.519s5.991 10.894 10.349 15.251l68.63 68.63c4.357 4.357 9.441 7.807 15.251 10.349s11.983 3.813 18.519 3.813c6.536 0 12.709-1.271 18.519-3.813s10.894-5.991 15.251-10.349l221.14-221.14 502.196 503.285c4.357 4.357 9.441 7.807 15.251 10.349s11.983 3.813 18.519 3.813c6.536 0 12.709-1.271 18.519-3.813s10.894-5.991 15.251-10.349l68.63-67.54z" />
<glyph unicode="cancel" glyph-name="cancel" d="M667.763 448l338.93-337.487c5.769-5.769 10.096-12.259 12.98-19.47s4.327-15.144 4.327-23.797c0-7.692-1.442-15.144-4.327-22.355s-7.211-13.701-12.98-19.47l-72.113-72.113c-5.769-5.769-12.259-10.096-19.47-12.98s-14.663-4.327-22.355-4.327c-8.654 0-16.586 1.442-23.797 4.327s-13.221 7.211-18.028 12.98l-338.93 338.93-338.93-338.93c-4.808-5.769-10.817-10.096-18.028-12.98s-15.144-4.327-23.797-4.327c-7.692 0-15.144 1.442-22.355 4.327s-13.701 7.211-19.47 12.98l-72.113 72.113c-5.769 5.769-10.096 12.259-12.98 19.47s-4.327 14.663-4.327 22.355c0 8.654 1.442 16.586 4.327 23.797s7.211 13.221 12.98 18.028l337.487 338.93-337.487 338.93c-5.769 4.808-10.096 10.817-12.98 18.028s-4.327 15.144-4.327 23.797c0 7.692 1.442 15.144 4.327 22.355s7.211 13.701 12.98 19.47l72.113 72.113c5.769 4.808 12.019 8.894 18.749 12.259s14.422 5.048 23.076 5.048c7.692 0 15.144-1.683 22.355-5.048s13.221-7.452 18.028-12.259l338.93-338.93 338.93 338.93c5.769 5.769 12.259 10.096 19.47 12.98s14.663 4.327 22.355 4.327c8.654 0 16.346-1.442 23.076-4.327s12.98-7.211 18.749-12.98l73.555-72.113c4.808-5.769 8.894-12.259 12.259-19.47s5.048-14.663 5.048-22.355c0-8.654-1.683-16.586-5.048-23.797s-7.452-13.221-12.259-18.028l-338.93-338.93z" />
<glyph unicode="calendar" glyph-name="calendar" d="M954 598c4.667 0 8.833-1.833 12.5-5.5s5.5-7.833 5.5-12.5v-626c0-5.333-1.833-9.667-5.5-13s-7.833-5-12.5-5h-872c-4.667 0-8.833 1.833-12.5 5.5s-5.5 7.833-5.5 12.5v626c0 4.667 1.833 8.833 5.5 12.5s7.833 5.5 12.5 5.5h872zM367 69l-1-1c48 0 86.167 10.667 114.5 32s42.5 50.333 42.5 87c0 25.333-7.333 44.833-22 58.5s-30.667 23.833-48 30.5c20 9.333 35 21.167 45 35.5s15 30.833 15 49.5c0 25.333-11.167 45.833-33.5 61.5s-51.833 23.5-88.5 23.5h-8c-17.333 0-34.167-1.667-50.5-5s-31.5-8-45.5-14c-1.333-0.667-2.5-1.667-3.5-3s-1.5-3-1.5-5v-1l8-61c0.667-2 1.333-3.5 2-4.5s1.667-1.833 3-2.5c0.667 0 1.333-0.167 2-0.5s1.333-0.5 2-0.5h2c0.667 0 1 0.333 1 1 10.667 5.333 21.833 9.5 33.5 12.5s23.833 4.5 36.5 4.5c20 0 31.667-3 35-9s5-11 5-15c0-7.333-3.5-14.667-10.5-22s-25.833-12-56.5-14c-2-0.667-3.833-1.833-5.5-3.5s-2.5-3.5-2.5-5.5v-61c0-2.667 0.833-4.833 2.5-6.5s3.833-2.5 6.5-2.5c34.667-2 57-6.667 67-14s15-17.667 15-31c0-10.667-5-19.333-15-26s-22.667-10-38-10h-3c-14.667 0-28.667 1.333-42 4s-25.667 6.333-37 11c-0.667 0.667-1.333 1-2 1h-4c-0.667 0-1.333-0.333-2-1-1.333-0.667-2.333-1.5-3-2.5s-1.333-2.167-2-3.5l-8-61v-2c0-1.333 0.5-2.833 1.5-4.5s1.833-2.5 2.5-2.5c14-6 28.667-10.333 44-13s31-4 47-4zM747 82v350c0 2-0.833 4-2.5 6s-3.833 3-6.5 3h-37c-0.667 0-1.333-0.167-2-0.5s-1.333-0.5-2-0.5l-107-53c-1.333-0.667-2.5-1.667-3.5-3s-1.5-3-1.5-5v-1l9-62c0-1.333 0.333-2.5 1-3.5s1.667-1.833 3-2.5c0.667 0 1.333-0.167 2-0.5s1.333-0.5 2-0.5c0.667 0 1.333 0.167 2 0.5s1.333 0.5 2 0.5l49 19v-247c0-2 0.833-4 2.5-6s3.833-3 6.5-3h74c2.667 0 4.833 1 6.5 3s2.5 4 2.5 6zM954 879c4.667 0 8.833-1.667 12.5-5s5.5-7.333 5.5-12v-184c0-4.667-1.833-8.833-5.5-12.5s-7.833-5.5-12.5-5.5h-872c-4.667 0-8.833 1.833-12.5 5.5s-5.5 7.833-5.5 12.5v184c0 4.667 1.833 8.667 5.5 12s7.833 5 12.5 5h94v-43c0-23.333 7.5-45 22.5-65s41.166-30 78.5-30c36.667 0 62.5 10 77.5 30s22.5 41.667 22.5 65v43h284v-43c0-23.333 7.333-45 22-65s40.666-30 78-30c36.667 0 62.5 10 77.5 30s22.5 41.667 22.5 65v43h93zM277 799c-15.333 0-26.167 2.833-32.5 8.5s-9.5 15.167-9.5 28.5v87c0 13.333 3.167 22.833 9.5 28.5s17.167 8.5 32.5 8.5c14.667 0 25.167-2.833 31.5-8.5s9.5-15.167 9.5-28.5v-87c0-13.333-3.167-22.833-9.5-28.5s-16.833-8.5-31.5-8.5zM761 799c-15.333 0-26.167 2.833-32.5 8.5s-9.5 15.167-9.5 28.5v87c0 13.333 3.167 22.833 9.5 28.5s17.167 8.5 32.5 8.5c14.667 0 25.333-2.833 32-8.5s10-15.167 10-28.5v-87c0-13.333-3.333-22.833-10-28.5s-17.333-8.5-32-8.5z" />
</font>
</defs>
</svg>
